(Score) Её алиби / Her Alibi (by Georges Delerue) - 2014 (1989), FLAC (image+.cue), lossless


Статистика раздачи [Обновить пиров]
Размер:  693 MB   |    Зарегистрирован:  1 год 1 месяц   |    Скачан:  0 раз

Полного источника не было: Никогда

 
   
 
 
 

[Цитировать]

-Её алиби / Her Alibi
Composed and Conducted by Georges Delerue
Limited Edition
- -Жанр: Score | Дата выпуска: 11 августа 2014
Издатель (лейбл): Intrada | Номер по каталогу: ISC 283
Аудиокодек: FLAC | Тип рипа: image+.cue | Битрейт аудио: lossless
Общая продолжительность: 79:12
Источник: Рип оригинального диска из личной коллекции
-★★ THE ALBUM ★★
01. Main Title [2:15]
02. Wild Source [3:01]
03. Enter Nina [2:36]
04. Nina [0:51]
05. True Confessions [1:27]
06. Welcome Home [1:25]
07. Dinner With Nina [1:44]
08. The Knife [2:29]
09. Nina Tries to Escape [1:48]
10. Shopping For Knives [0:59]
11. Chase [1:29]
12. The Haircut [2:54]
13. Bow And Arrow Run [2:08]
14. Bow And Arrow Run (Alternate) [2:09]
15. The Dream Sequence [2:05]
16. The Book Store [2:58]
17. The Scissors [0:55]
18. Nina's Passion [1:34]
19. Poison Panic [2:05]
20. The Dead Cat [1:01]
21. Panic in Motion (Alternate) [3:08]
22. Nina Leaves [0:40]
23. Another Dead Roach [0:15]
24. End Credits [5:08]
★★ THE EXTRAS ★★
25. Poison Panic [0:41]
26. Wild Strings [0:42]
27. Romanian Music [0:48]
★★ CIRCUS MUSIC by Georges Delerue ★★
28. Circus Brass Band Fanfare [2:25]
29. Circus Brass Band Fanfare (Alternate No. 1) [2:56]
30. Circus Brass Band Fanfare (Alternate No. 2) [2:34]
31. Calliope No. 1 [2:43]
32. Calliope No. 2 [2:47]
33. Circus Accordion [2:45]
34. Solo Fiddle [0:33]
35. Circus Organ No. 1 [3:15]
36. Circus Organ No. 2 [1:39]
37. Waltz Theme [1:07]
38. Theme No. 2 [0:54]
39. The Tuba [0:20]
40. Wild Drums [2:48]
41. Wild Harmonica (Alternate) [1:26]
42. Wild Harmonica [1:05]

Лог создания рипа

Exact Audio Copy V1.0 beta 3 from 29. August 2011
EAC extraction logfile from 29. August 2014, 14:27
Georges Delerue / Her Alibi
Used drive : TSSTcorpCDDVDW SN-S082N Adapter: 3 ID: 0
Read mode : SecureUtilize accurate stream : YesDefeat audio cache : YesMake use of C2 pointers : No
Read offset correction : 6Overread into Lead-In and Lead-Out : NoFill up missing offset samples with silence : YesDelete leading and trailing silent blocks : NoNull samples used in CRC calculations : YesUsed interface : Native Win32 interface for Win NT & 2000
Used output format : Internal WAV RoutinesSample format : 44.100 Hz; 16 Bit; Stereo
TOC of the extracted CD
Track | Start | Length | Start sector | End sector --------------------------------------------------------- 1 | 0:00.00 | 2:16.35 | 0 | 10234 2 | 2:16.35 | 3:01.68 | 10235 | 23877 3 | 5:18.28 | 2:37.09 | 23878 | 35661 4 | 7:55.37 | 0:51.67 | 35662 | 39553 5 | 8:47.29 | 1:27.45 | 39554 | 46123 6 | 10:14.74 | 1:26.35 | 46124 | 52608 7 | 11:41.34 | 1:47.03 | 52609 | 60636 8 | 13:28.37 | 2:29.70 | 60637 | 71881 9 | 15:58.32 | 1:49.32 | 71882 | 80088 10 | 17:47.64 | 0:57.47 | 80089 | 84410 11 | 18:45.36 | 1:30.70 | 84411 | 91230 12 | 20:16.31 | 2:56.04 | 91231 | 104434 13 | 23:12.35 | 2:11.00 | 104435 | 114259 14 | 25:23.35 | 2:11.35 | 114260 | 124119 15 | 27:34.70 | 2:06.01 | 124120 | 133570 16 | 29:40.71 | 2:50.42 | 133571 | 146362 17 | 32:31.38 | 0:56.34 | 146363 | 150596 18 | 33:27.72 | 1:35.40 | 150597 | 157761 19 | 35:03.37 | 2:04.33 | 157762 | 167094 20 | 37:07.70 | 1:01.42 | 167095 | 171711 21 | 38:09.37 | 3:08.71 | 171712 | 185882 22 | 41:18.33 | 0:42.06 | 185883 | 189038 23 | 42:00.39 | 0:17.00 | 189039 | 190313 24 | 42:17.39 | 5:14.73 | 190314 | 213936 25 | 47:32.37 | 0:42.52 | 213937 | 217138 26 | 48:15.14 | 0:42.38 | 217139 | 220326 27 | 48:57.52 | 0:50.65 | 220327 | 224141 28 | 49:48.42 | 2:17.10 | 224142 | 234426 29 | 52:05.52 | 2:57.38 | 234427 | 247739 30 | 55:03.15 | 2:35.42 | 247740 | 259406 31 | 57:38.57 | 2:43.68 | 259407 | 271699 32 | 60:22.50 | 2:47.73 | 271700 | 284297 33 | 63:10.48 | 2:45.38 | 284298 | 296710 34 | 65:56.11 | 0:34.06 | 296711 | 299266 35 | 66:30.17 | 3:15.36 | 299267 | 313927 36 | 69:45.53 | 1:39.31 | 313928 | 321383 37 | 71:25.09 | 1:08.42 | 321384 | 326525 38 | 72:33.51 | 0:55.15 | 326526 | 330665 39 | 73:28.66 | 0:20.24 | 330666 | 332189 40 | 73:49.15 | 2:48.36 | 332190 | 344825 41 | 76:37.51 | 1:26.02 | 344826 | 351277 42 | 78:03.53 | 1:07.32 | 351278 | 356334
Range status and errors
Selected range
Filename D:\Georges Delerue (1989) Her Alibi\Georges Delerue - Her Alibi (Intrada SCV 283).wav
Peak level 98.8 % Extraction speed 4.8 X Range quality 100.0 % Test CRC 24B6FC4F Copy CRC 24B6FC4F Copy OK
No errors occurred
AccurateRip summary
Track 1 not present in databaseTrack 2 not present in databaseTrack 3 not present in databaseTrack 4 not present in databaseTrack 5 not present in databaseTrack 6 not present in databaseTrack 7 not present in databaseTrack 8 not present in databaseTrack 9 not present in databaseTrack 10 not present in databaseTrack 11 not present in databaseTrack 12 not present in databaseTrack 13 not present in databaseTrack 14 not present in databaseTrack 15 not present in databaseTrack 16 not present in databaseTrack 17 not present in databaseTrack 18 not present in databaseTrack 19 not present in databaseTrack 20 not present in databaseTrack 21 not present in databaseTrack 22 not present in databaseTrack 23 not present in databaseTrack 24 not present in databaseTrack 25 not present in databaseTrack 26 not present in databaseTrack 27 not present in databaseTrack 28 not present in databaseTrack 29 not present in databaseTrack 30 not present in databaseTrack 31 not present in databaseTrack 32 not present in databaseTrack 33 not present in databaseTrack 34 not present in databaseTrack 35 not present in databaseTrack 36 not present in databaseTrack 37 not present in databaseTrack 38 not present in databaseTrack 39 not present in databaseTrack 40 not present in databaseTrack 41 not present in databaseTrack 42 not present in database
None of the tracks are present in the AccurateRip database
End of status report
---- CUETools DB Plugin V2.1.4
[CTDB TOCID: qM.Ofp1wO2eBrI5na7mCLT9RSB0-] disk not present in databaseSubmit result: qM.Ofp1wO2eBrI5na7mCLT9RSB0- has been uploaded
==== Log checksum 9B6B225FA9C7942D83B28C1522BB2F2F4C914C412C9F5D22791ABBBD08C8859C ====

Содержание индексной карты (.CUE)

REM GENRE SoundtrackREM DATE 1989REM DISCID 8F128F2AREM COMMENT "ExactAudioCopy v1.0b3"PERFORMER "Georges Delerue"TITLE "Her Alibi"FILE "Georges Delerue - Her Alibi (Intrada SCV 283).flac" WAVE TRACK 01 AUDIO TITLE "Main Title" PERFORMER "Georges Delerue" INDEX 01 00:00:00 TRACK 02 AUDIO TITLE "Wild Source" PERFORMER "Georges Delerue" INDEX 01 02:16:35 TRACK 03 AUDIO TITLE "Enter Nina" PERFORMER "Georges Delerue" INDEX 01 05:18:28 TRACK 04 AUDIO TITLE "Nina" PERFORMER "Georges Delerue" INDEX 01 07:55:37 TRACK 05 AUDIO TITLE "True Confessions" PERFORMER "Georges Delerue" INDEX 01 08:47:29 TRACK 06 AUDIO TITLE "Welcome Home" PERFORMER "Georges Delerue" INDEX 01 10:14:74 TRACK 07 AUDIO TITLE "Dinner With Nina" PERFORMER "Georges Delerue" INDEX 01 11:41:34 TRACK 08 AUDIO TITLE "The Knife" PERFORMER "Georges Delerue" INDEX 01 13:28:37 TRACK 09 AUDIO TITLE "Nina Tries to Escape" PERFORMER "Georges Delerue" INDEX 01 15:58:32 TRACK 10 AUDIO TITLE "Shopping For Knives" PERFORMER "Georges Delerue" INDEX 01 17:47:64 TRACK 11 AUDIO TITLE "Chase" PERFORMER "Georges Delerue" INDEX 01 18:45:36 TRACK 12 AUDIO TITLE "The Haircut" PERFORMER "Georges Delerue" INDEX 01 20:16:31 TRACK 13 AUDIO TITLE "Bow And Arrow Run" PERFORMER "Georges Delerue" INDEX 01 23:12:35 TRACK 14 AUDIO TITLE "Bow And Arrow Run (Alternate)" PERFORMER "Georges Delerue" INDEX 01 25:23:35 TRACK 15 AUDIO TITLE "The Dream Sequence" PERFORMER "Georges Delerue" INDEX 01 27:34:70 TRACK 16 AUDIO TITLE "The Book Store" PERFORMER "Georges Delerue" INDEX 01 29:40:71 TRACK 17 AUDIO TITLE "The Scissors" PERFORMER "Georges Delerue" INDEX 01 32:31:38 TRACK 18 AUDIO TITLE "Nina's Passion" PERFORMER "Georges Delerue" INDEX 01 33:27:72 TRACK 19 AUDIO TITLE "Poison Panic" PERFORMER "Georges Delerue" INDEX 01 35:03:37 TRACK 20 AUDIO TITLE "The Dead Cat" PERFORMER "Georges Delerue" INDEX 01 37:07:70 TRACK 21 AUDIO TITLE "Panic in Motion (Alternate)" PERFORMER "Georges Delerue" INDEX 01 38:09:37 TRACK 22 AUDIO TITLE "Nina Leaves" PERFORMER "Georges Delerue" INDEX 01 41:18:33 TRACK 23 AUDIO TITLE "Another Dead Roach" PERFORMER "Georges Delerue" INDEX 01 42:00:39 TRACK 24 AUDIO TITLE "End Credits" PERFORMER "Georges Delerue" INDEX 01 42:17:39 TRACK 25 AUDIO TITLE "Poison Panic" PERFORMER "Georges Delerue" INDEX 01 47:32:37 TRACK 26 AUDIO TITLE "Wild Strings" PERFORMER "Georges Delerue" INDEX 01 48:15:14 TRACK 27 AUDIO TITLE "Romanian Music" PERFORMER "Georges Delerue" INDEX 01 48:57:52 TRACK 28 AUDIO TITLE "Circus Brass Band Fanfare" PERFORMER "Georges Delerue" INDEX 01 49:48:42 TRACK 29 AUDIO TITLE "Circus Brass Band Fanfare (Alternate No. 1)" PERFORMER "Georges Delerue" INDEX 01 52:05:52 TRACK 30 AUDIO TITLE "Circus Brass Band Fanfare (Alternate No. 2)" PERFORMER "Georges Delerue" INDEX 01 55:03:15 TRACK 31 AUDIO TITLE "Calliope No. 1" PERFORMER "Georges Delerue" INDEX 01 57:38:57 TRACK 32 AUDIO TITLE "Calliope No. 2" PERFORMER "Georges Delerue" INDEX 01 60:22:50 TRACK 33 AUDIO TITLE "Circus Accordion" PERFORMER "Georges Delerue" INDEX 01 63:10:48 TRACK 34 AUDIO TITLE "Solo Fiddle" PERFORMER "Georges Delerue" INDEX 01 65:56:11 TRACK 35 AUDIO TITLE "Circus Organ No. 1" PERFORMER "Georges Delerue" INDEX 01 66:30:17 TRACK 36 AUDIO TITLE "Circus Organ No. 2" PERFORMER "Georges Delerue" INDEX 01 69:45:53 TRACK 37 AUDIO TITLE "Waltz Theme" PERFORMER "Georges Delerue" INDEX 01 71:25:09 TRACK 38 AUDIO TITLE "Theme No. 2" PERFORMER "Georges Delerue" INDEX 01 72:33:51 TRACK 39 AUDIO TITLE "The Tuba" PERFORMER "Georges Delerue" INDEX 01 73:28:66 TRACK 40 AUDIO TITLE "Wild Drums" PERFORMER "Georges Delerue" INDEX 01 73:49:15 TRACK 41 AUDIO TITLE "Wild Harmonica (Alternate)" PERFORMER "Georges Delerue" INDEX 01 76:37:51 TRACK 42 AUDIO TITLE "Wild Harmonica" PERFORMER "Georges Delerue" INDEX 01 78:03:53
[teatrix.ru].t10445.torrent 
Торрент: Зарегистрирован [ 2015-11-01 20:51 ] · F721B314BD815F20C81F543F2CF3BBA2E17E349B

Скачать .torrent

Скачать

15 KB

Статус: проверено
Скачан: 0 раз
Размер: 693 MB
terms.php



Быстрый ответ

Имя:

      
Для отправки сообщений необходимо включить JavaScript
Показать сообщения:    

Текущее время: 05-Дек 01:21

Часовой пояс: UTC + 3


Вы можете начинать темы
Вы можете отвечать на сообщения
Вы не можете редактировать свои сообщения
Вы не можете удалять свои сообщения
Вы не можете голосовать в опросах
Вы не можете прикреплять файлы к сообщениям
Вы можете скачивать файлы