(Soundtrack / Score) Холодное сердце / Frozen [Japanese Deluxe Edition] (by Christophe Beck & VA) - 2014 (2013), FLAC (tracks+.cue), lossless


Статистика раздачи [Обновить пиров]
Размер:  714 MB   |    Зарегистрирован:  1 год 1 месяц   |    Скачан:  0 раз

Полного источника не было: Никогда

 
   
 
 
 

[Цитировать]

Холодное сердце / Frozen- Название альбома: Frozen
Жанр: Soundtrack, Score
Композитор: Christophe Beck & VA
Год выпуска диска: 2014
Год выпуска фильма: 2013
Издатель (лейбл): Walt Disney Records
Номер по каталогу: AVCW-63028-9
Аудиокодек: FLAC (*.flac)
Тип рипа: tracks+.cue
Битрейт аудио: lossless
Продолжительность: 01:57:09
Источник: what.cd
Наличие сканов в содержимом раздачи: да

CD 1

01. Frozen Heart
02. Do You Want To Build A Snowman?
03. For The First Time In Forever
04. Love Is An Open Door
05. Let It Go
06. Reindeer(s) Are Better Than People
07. In Summer
08. For The First Time In Forever (Reprise)
09. Fixer Upper
10. Let It Go (Demi Lovato Version)
11. Vuelie (Featuring Cantus)
12. Elsa And Anna
13. The Trolls
14. Coronation Day
15. Heimr Arnadalr
16. Winter's Waltz
17. Sorcery
18. Royal Pursuit
19. Onward and Upward
20. Wolves
21. The North Mountain
22. We Were So Close
23. Marshmallow Attack!
24. Conceal, Don't Feel
25. Only An Act of True Love
26. Summit Siege
27. Return To Arendelle
28. Treason
29. Some People Are Worth Melting For
30. Whiteout
31. The Great Thaw (Vuelie Reprise)
32. Epilogue
33. レット・イット・ゴー -ありのままで- (エンドソング)

CD 2

01. 氷の心
02. 雪だるまつくろう
03. 生まれてはじめて
04. とびら開けて
05. レット・イット・ゴー ~ありのままで~
06. トナカイのほうがずっといい
07. あこがれの夏
08. 生まれてはじめて (リプライズ)
09. 愛さえあれば
10. レット・イット・ゴー ~ありのままで~
11. レット・イット・ゴー(マルチ・ランゲージ・メドレー) 25ヵ国語Ver.
12. 雪だるまつくろう(カラオケ・バージョン)
13. 生まれてはじめて(カラオケ・バージョン)
14. レット・イット・ゴー(カラオケ・バージョン)
15. 生まれてはじめて(リプライズ)(カラオケ・バージョン)

-

Лог создания рипаCD1

X Lossless Decoder version 20140504 (147.0)
XLD extraction logfile from 2014-07-31 22:55:56 +0900
Various Artists / アナと雪の女王 オリジナル・サウンドトラック -デラックス・エディション-
Used drive : TSSTcorp CDDVDW SE-218CB (revision MF00)Media type : Pressed CD
Ripper mode : XLD Secure RipperDisable audio cache : OK for the drive with a cache less than 1375KiBMake use of C2 pointers : NORead offset correction : 6Max retry count : 100Gap status : Analyzed, Appended
TOC of the extracted CD Track | Start | Length | Start sector | End sector --------------------------------------------------------- 1 | 00:00:00 | 01:46:55 | 0 | 8004 2 | 01:46:55 | 03:27:72 | 8005 | 23601 3 | 05:14:52 | 03:45:06 | 23602 | 40482 4 | 08:59:58 | 02:07:09 | 40483 | 50016 5 | 11:06:67 | 03:44:46 | 50017 | 66862 6 | 14:51:38 | 00:50:72 | 66863 | 70684 7 | 15:42:35 | 01:54:07 | 70685 | 79241 8 | 17:36:42 | 02:30:14 | 79242 | 90505 9 | 20:06:56 | 03:02:08 | 90506 | 104163 10 | 23:08:64 | 03:47:09 | 104164 | 121197 11 | 26:55:73 | 01:36:65 | 121198 | 128462 12 | 28:32:63 | 02:43:41 | 128463 | 140728 13 | 31:16:29 | 01:48:03 | 140729 | 148831 14 | 33:04:32 | 01:14:66 | 148832 | 154447 15 | 34:19:23 | 01:25:45 | 154448 | 160867 16 | 35:44:68 | 01:00:27 | 160868 | 165394 17 | 36:45:20 | 03:17:15 | 165395 | 180184 18 | 40:02:35 | 01:02:28 | 180185 | 184862 19 | 41:04:63 | 01:54:10 | 184863 | 193422 20 | 42:58:73 | 01:44:51 | 193423 | 201273 21 | 44:43:49 | 01:34:01 | 201274 | 208324 22 | 46:17:50 | 01:53:38 | 208325 | 216837 23 | 48:11:13 | 01:43:60 | 216838 | 224622 24 | 49:54:73 | 01:07:37 | 224623 | 229684 25 | 51:02:35 | 01:07:35 | 229685 | 234744 26 | 52:09:70 | 02:32:55 | 234745 | 246199 27 | 54:42:50 | 01:38:70 | 246200 | 253619 28 | 56:21:45 | 01:36:46 | 253620 | 260865 29 | 57:58:16 | 02:06:04 | 260866 | 270319 30 | 60:04:20 | 04:17:28 | 270320 | 289622 31 | 64:21:48 | 02:29:34 | 289623 | 300831 32 | 66:51:07 | 03:06:15 | 300832 | 314796 33 | 69:57:22 | 03:44:62 | 314797 | 331658
List of alternate offset correction values # | Absolute | Relative | Confidence ------------------------------------------ 1 | 31 | 25 | 3
AccurateRip Summary (DiscID: 0056e792-07bb7661-fd114621) Track 01 : OK (v1+v2, confidence 39/42) Track 02 : OK (v1+v2, confidence 38/41) Track 03 : OK (v1+v2, confidence 39/42) Track 04 : OK (v1+v2, confidence 39/42) Track 05 : OK (v1+v2, confidence 39/42) Track 06 : OK (v1+v2, confidence 39/42) Track 07 : OK (v1+v2, confidence 39/42) Track 08 : OK (v1+v2, confidence 39/42) Track 09 : OK (v1+v2, confidence 39/42) Track 10 : OK (v1+v2, confidence 39/42) Track 11 : OK (v1+v2, confidence 39/42) Track 12 : OK (v1+v2, confidence 39/42) Track 13 : OK (v1+v2, confidence 39/42) Track 14 : OK (v1+v2, confidence 39/42) Track 15 : OK (v1+v2, confidence 39/42) Track 16 : OK (v1+v2, confidence 39/42) Track 17 : OK (v1+v2, confidence 39/42) Track 18 : OK (v1+v2, confidence 39/42) Track 19 : OK (v1+v2, confidence 39/42) Track 20 : OK (v1+v2, confidence 39/42) Track 21 : OK (v1+v2, confidence 39/42) Track 22 : OK (v1+v2, confidence 39/42) Track 23 : OK (v1+v2, confidence 39/42) Track 24 : OK (v1+v2, confidence 39/42) Track 25 : OK (v1+v2, confidence 39/42) Track 26 : OK (v1+v2, confidence 39/42) Track 27 : OK (v1+v2, confidence 39/42) Track 28 : OK (v1+v2, confidence 39/42) Track 29 : OK (v1+v2, confidence 39/42) Track 30 : OK (v1+v2, confidence 39/42) Track 31 : OK (v1+v2, confidence 39/42) Track 32 : OK (v1+v2, confidence 39/42) Track 33 : OK (v1+v2, confidence 39/42) ->All tracks accurately ripped.
All Tracks Album gain : -7.34 dB Peak : 1.000000 Statistics Read error : 0 Jitter error (maybe fixed) : 0 Retry sector count : 0 Damaged sector count : 0
Track 01 Filename : /XLD rips/Compilations - 2014 - アナと雪の女王 オリジナル・サウンドトラック -デラックス・エディション- [FLAC]/01 Frozen Heart.flac Pre-gap length : 00:02:00
Track gain : -7.38 dB Peak : 1.000000 CRC32 hash (test run) : 6504C1EB CRC32 hash : 6504C1EB CRC32 hash (skip zero) : 63F53968 AccurateRip v1 signature : 7BEBF596 AccurateRip v2 signature : 80DB485A ->Accurately ripped (v1+v2, confidence 7+32/42) Statistics Read error : 0 Jitter error (maybe fixed) : 0 Retry sector count : 0 Damaged sector count : 0
Track 02 Filename : /XLD rips/Compilations - 2014 - アナと雪の女王 オリジナル・サウンドトラック -デラックス・エディション- [FLAC]/02 Do You Want To Build A Snowman?.flac Pre-gap length : 00:01:33
Track gain : -3.41 dB Peak : 1.000000 CRC32 hash (test run) : 9F1B8EEF CRC32 hash : 9F1B8EEF CRC32 hash (skip zero) : B98F06F4 AccurateRip v1 signature : 9ED3E111 AccurateRip v2 signature : 4014BE04 ->Accurately ripped (v1+v2, confidence 6+32/41) Statistics Read error : 0 Jitter error (maybe fixed) : 0 Retry sector count : 0 Damaged sector count : 0
Track 03 Filename : /XLD rips/Compilations - 2014 - アナと雪の女王 オリジナル・サウンドトラック -デラックス・エディション- [FLAC]/03 For The First Time In Forever.flac Pre-gap length : 00:01:34
Track gain : -8.47 dB Peak : 1.000000 CRC32 hash (test run) : DB68C039 CRC32 hash : DB68C039 CRC32 hash (skip zero) : 4DC11D43 AccurateRip v1 signature : 495AC505 AccurateRip v2 signature : 10B3C8C3 ->Accurately ripped (v1+v2, confidence 7+32/42) Statistics Read error : 0 Jitter error (maybe fixed) : 0 Retry sector count : 0 Damaged sector count : 0
Track 04 Filename : /XLD rips/Compilations - 2014 - アナと雪の女王 オリジナル・サウンドトラック -デラックス・エディション- [FLAC]/04 Love Is An Open Door.flac
Track gain : -8.81 dB Peak : 1.000000 CRC32 hash (test run) : 08B10005 CRC32 hash : 08B10005 CRC32 hash (skip zero) : 7CC2D1B4 AccurateRip v1 signature : 35E7F5FA AccurateRip v2 signature : 4DFCBFC4 ->Accurately ripped (v1+v2, confidence 7+32/42) Statistics Read error : 0 Jitter error (maybe fixed) : 0 Retry sector count : 0 Damaged sector count : 0
Track 05 Filename : /XLD rips/Compilations - 2014 - アナと雪の女王 オリジナル・サウンドトラック -デラックス・エディション- [FLAC]/05 Let It Go.flac Pre-gap length : 00:02:29
Track gain : -7.96 dB Peak : 1.000000 CRC32 hash (test run) : 2DD62E5E CRC32 hash : 2DD62E5E CRC32 hash (skip zero) : 8DA19199 AccurateRip v1 signature : CF5BEC09 AccurateRip v2 signature : 00124B4F ->Accurately ripped (v1+v2, confidence 7+32/42) Statistics Read error : 0 Jitter error (maybe fixed) : 0 Retry sector count : 0 Damaged sector count : 0
Track 06 Filename : /XLD rips/Compilations - 2014 - アナと雪の女王 オリジナル・サウンドトラック -デラックス・エディション- [FLAC]/06 Reindeer(s) Are Better Than People.flac Pre-gap length : 00:00:58
Track gain : -3.23 dB Peak : 0.988159 CRC32 hash (test run) : 6FC04ECD CRC32 hash : 6FC04ECD CRC32 hash (skip zero) : 830BBC16 AccurateRip v1 signature : 0E29CF36 AccurateRip v2 signature : B3725820 ->Accurately ripped (v1+v2, confidence 7+32/42) Statistics Read error : 0 Jitter error (maybe fixed) : 0 Retry sector count : 0 Damaged sector count : 0
Track 07 Filename : /XLD rips/Compilations - 2014 - アナと雪の女王 オリジナル・サウンドトラック -デラックス・エディション- [FLAC]/07 In Summer.flac
Track gain : -6.72 dB Peak : 0.991913 CRC32 hash (test run) : DCEF80F8 CRC32 hash : DCEF80F8 CRC32 hash (skip zero) : 2173CC53 AccurateRip v1 signature : 6FEAB4CD AccurateRip v2 signature : 481512E6 ->Accurately ripped (v1+v2, confidence 7+32/42) Statistics Read error : 0 Jitter error (maybe fixed) : 0 Retry sector count : 0 Damaged sector count : 0
Track 08 Filename : /XLD rips/Compilations - 2014 - アナと雪の女王 オリジナル・サウンドトラック -デラックス・エディション- [FLAC]/08 For The First Time In Forever (Reprise).flac Pre-gap length : 00:03:08
Track gain : -7.16 dB Peak : 0.999969 CRC32 hash (test run) : B619BE60 CRC32 hash : B619BE60 CRC32 hash (skip zero) : FD6C7D71 AccurateRip v1 signature : A17B8778 AccurateRip v2 signature : B6088D9A ->Accurately ripped (v1+v2, confidence 7+32/42) Statistics Read error : 0 Jitter error (maybe fixed) : 0 Retry sector count : 0 Damaged sector count : 0
Track 09 Filename : /XLD rips/Compilations - 2014 - アナと雪の女王 オリジナル・サウンドトラック -デラックス・エディション- [FLAC]/09 Fixer Upper.flac Pre-gap length : 00:00:40
Track gain : -9.06 dB Peak : 1.000000 CRC32 hash (test run) : C6B617F9 CRC32 hash : C6B617F9 CRC32 hash (skip zero) : B4BEFC0C AccurateRip v1 signature : B80927B3 AccurateRip v2 signature : C9EA37E0 ->Accurately ripped (v1+v2, confidence 7+32/42) Statistics Read error : 0 Jitter error (maybe fixed) : 0 Retry sector count : 0 Damaged sector count : 0
Track 10 Filename : /XLD rips/Compilations - 2014 - アナと雪の女王 オリジナル・サウンドトラック -デラックス・エディション- [FLAC]/10 Let It Go (Demi Lovato Version).flac
Track gain : -8.52 dB Peak : 1.000000 CRC32 hash (test run) : F62FB247 CRC32 hash : F62FB247 CRC32 hash (skip zero) : 5128E336 AccurateRip v1 signature : ED4BE249 AccurateRip v2 signature : 91AFB48C ->Accurately ripped (v1+v2, confidence 7+32/42) Statistics Read error : 0 Jitter error (maybe fixed) : 0 Retry sector count : 0 Damaged sector count : 0
Track 11 Filename : /XLD rips/Compilations - 2014 - アナと雪の女王 オリジナル・サウンドトラック -デラックス・エディション- [FLAC]/11 Vuelie (Featuring Cantus).flac Pre-gap length : 00:02:54
Track gain : -5.55 dB Peak : 0.988647 CRC32 hash (test run) : 670EF1B8 CRC32 hash : 670EF1B8 CRC32 hash (skip zero) : B10CE2D8 AccurateRip v1 signature : 4556D39E AccurateRip v2 signature : B306AFD5 ->Accurately ripped (v1+v2, confidence 7+32/42) Statistics Read error : 0 Jitter error (maybe fixed) : 0 Retry sector count : 0 Damaged sector count : 0
Track 12 Filename : /XLD rips/Compilations - 2014 - アナと雪の女王 オリジナル・サウンドトラック -デラックス・エディション- [FLAC]/12 Elsa And Anna.flac Pre-gap length : 00:00:66
Track gain : -2.83 dB Peak : 1.000000 CRC32 hash (test run) : EE328694 CRC32 hash : EE328694 CRC32 hash (skip zero) : 6898FA0A AccurateRip v1 signature : 82EBB365 AccurateRip v2 signature : 77ED3421 ->Accurately ripped (v1+v2, confidence 7+32/42) Statistics Read error : 0 Jitter error (maybe fixed) : 0 Retry sector count : 0 Damaged sector count : 0
Track 13 Filename : /XLD rips/Compilations - 2014 - アナと雪の女王 オリジナル・サウンドトラック -デラックス・エディション- [FLAC]/13 The Trolls.flac
Track gain : -1.33 dB Peak : 0.978668 CRC32 hash (test run) : 3D68E9D7 CRC32 hash : 3D68E9D7 CRC32 hash (skip zero) : 62860F21 AccurateRip v1 signature : 13155650 AccurateRip v2 signature : AF631869 ->Accurately ripped (v1+v2, confidence 7+32/42) Statistics Read error : 0 Jitter error (maybe fixed) : 0 Retry sector count : 0 Damaged sector count : 0
Track 14 Filename : /XLD rips/Compilations - 2014 - アナと雪の女王 オリジナル・サウンドトラック -デラックス・エディション- [FLAC]/14 Coronation Day.flac
Track gain : -4.03 dB Peak : 0.998627 CRC32 hash (test run) : CAA6BC6D CRC32 hash : CAA6BC6D CRC32 hash (skip zero) : 8354B03C AccurateRip v1 signature : AE20AED7 AccurateRip v2 signature : F476DD23 ->Accurately ripped (v1+v2, confidence 7+32/42) Statistics Read error : 0 Jitter error (maybe fixed) : 0 Retry sector count : 0 Damaged sector count : 0
Track 15 Filename : /XLD rips/Compilations - 2014 - アナと雪の女王 オリジナル・サウンドトラック -デラックス・エディション- [FLAC]/15 Heimr Arnadalr.flac
Track gain : -1.37 dB Peak : 0.988007 CRC32 hash (test run) : F207F6E9 CRC32 hash : F207F6E9 CRC32 hash (skip zero) : 9095A6C7 AccurateRip v1 signature : 591508A7 AccurateRip v2 signature : 042A404B ->Accurately ripped (v1+v2, confidence 7+32/42) Statistics Read error : 0 Jitter error (maybe fixed) : 0 Retry sector count : 0 Damaged sector count : 0
Track 16 Filename : /XLD rips/Compilations - 2014 - アナと雪の女王 オリジナル・サウンドトラック -デラックス・エディション- [FLAC]/16 Winter's Waltz.flac
Track gain : -3.50 dB Peak : 0.975464 CRC32 hash (test run) : 9FD29D7C CRC32 hash : 9FD29D7C CRC32 hash (skip zero) : D91D8F67 AccurateRip v1 signature : C1143342 AccurateRip v2 signature : 8607C958 ->Accurately ripped (v1+v2, confidence 7+32/42) Statistics Read error : 0 Jitter error (maybe fixed) : 0 Retry sector count : 0 Damaged sector count : 0
Track 17 Filename : /XLD rips/Compilations - 2014 - アナと雪の女王 オリジナル・サウンドトラック -デラックス・エディション- [FLAC]/17 Sorcery.flac Pre-gap length : 00:01:33
Track gain : -5.97 dB Peak : 1.000000 CRC32 hash (test run) : B0B88D28 CRC32 hash : B0B88D28 CRC32 hash (skip zero) : F16DC802 AccurateRip v1 signature : D4DA4B67 AccurateRip v2 signature : 990C1F1C ->Accurately ripped (v1+v2, confidence 7+32/42) Statistics Read error : 0 Jitter error (maybe fixed) : 0 Retry sector count : 0 Damaged sector count : 0
Track 18 Filename : /XLD rips/Compilations - 2014 - アナと雪の女王 オリジナル・サウンドトラック -デラックス・エディション- [FLAC]/18 Royal Pursuit.flac Pre-gap length : 00:01:11
Track gain : -6.20 dB Peak : 1.000000 CRC32 hash (test run) : 3742806F CRC32 hash : 3742806F CRC32 hash (skip zero) : 4C84114A AccurateRip v1 signature : 7CE7BECF AccurateRip v2 signature : E1E9AB27 ->Accurately ripped (v1+v2, confidence 7+32/42) Statistics Read error : 0 Jitter error (maybe fixed) : 0 Retry sector count : 0 Damaged sector count : 0
Track 19 Filename : /XLD rips/Compilations - 2014 - アナと雪の女王 オリジナル・サウンドトラック -デラックス・エディション- [FLAC]/19 Onward and Upward.flac
Track gain : -3.94 dB Peak : 0.997284 CRC32 hash (test run) : 35D5AC34 CRC32 hash : 35D5AC34 CRC32 hash (skip zero) : 519B175B AccurateRip v1 signature : 35EB7371 AccurateRip v2 signature : 0237D930 ->Accurately ripped (v1+v2, confidence 7+32/42) Statistics Read error : 0 Jitter error (maybe fixed) : 0 Retry sector count : 0 Damaged sector count : 0
Track 20 Filename : /XLD rips/Compilations - 2014 - アナと雪の女王 オリジナル・サウンドトラック -デラックス・エディション- [FLAC]/20 Wolves.flac
Track gain : -7.37 dB Peak : 1.000000 CRC32 hash (test run) : 0BA1B2E9 CRC32 hash : 0BA1B2E9 CRC32 hash (skip zero) : 13DD7E2D AccurateRip v1 signature : 9A20FAED AccurateRip v2 signature : A4285C61 ->Accurately ripped (v1+v2, confidence 7+32/42) Statistics Read error : 0 Jitter error (maybe fixed) : 0 Retry sector count : 0 Damaged sector count : 0
Track 21 Filename : /XLD rips/Compilations - 2014 - アナと雪の女王 オリジナル・サウンドトラック -デラックス・エディション- [FLAC]/21 The North Mountain.flac
Track gain : -0.21 dB Peak : 0.980133 CRC32 hash (test run) : 506033C6 CRC32 hash : 506033C6 CRC32 hash (skip zero) : E2211DF2 AccurateRip v1 signature : 529F37E2 AccurateRip v2 signature : E4F74591 ->Accurately ripped (v1+v2, confidence 7+32/42) Statistics Read error : 0 Jitter error (maybe fixed) : 0 Retry sector count : 0 Damaged sector count : 0
Track 22 Filename : /XLD rips/Compilations - 2014 - アナと雪の女王 オリジナル・サウンドトラック -デラックス・エディション- [FLAC]/22 We Were So Close.flac Pre-gap length : 00:00:57
Track gain : -3.13 dB Peak : 0.979401 CRC32 hash (test run) : 51A94F09 CRC32 hash : 51A94F09 CRC32 hash (skip zero) : 1A51AC77 AccurateRip v1 signature : 505CB525 AccurateRip v2 signature : D05908A6 ->Accurately ripped (v1+v2, confidence 7+32/42) Statistics Read error : 0 Jitter error (maybe fixed) : 0 Retry sector count : 0 Damaged sector count : 0
Track 23 Filename : /XLD rips/Compilations - 2014 - アナと雪の女王 オリジナル・サウンドトラック -デラックス・エディション- [FLAC]/23 Marshmallow Attack!.flac
Track gain : -7.96 dB Peak : 1.000000 CRC32 hash (test run) : 44554450 CRC32 hash : 44554450 CRC32 hash (skip zero) : A3FCA2C9 AccurateRip v1 signature : EAAE0113 AccurateRip v2 signature : 9E8EA369 ->Accurately ripped (v1+v2, confidence 7+32/42) Statistics Read error : 0 Jitter error (maybe fixed) : 0 Retry sector count : 0 Damaged sector count : 0
Track 24 Filename : /XLD rips/Compilations - 2014 - アナと雪の女王 オリジナル・サウンドトラック -デラックス・エディション- [FLAC]/24 Conceal, Don't Feel.flac Pre-gap length : 00:01:09
Track gain : -2.38 dB Peak : 0.735229 CRC32 hash (test run) : F764F040 CRC32 hash : F764F040 CRC32 hash (skip zero) : 9E127E31 AccurateRip v1 signature : EBBBB6F0 AccurateRip v2 signature : A42878C8 ->Accurately ripped (v1+v2, confidence 7+32/42) Statistics Read error : 0 Jitter error (maybe fixed) : 0 Retry sector count : 0 Damaged sector count : 0
Track 25 Filename : /XLD rips/Compilations - 2014 - アナと雪の女王 オリジナル・サウンドトラック -デラックス・エディション- [FLAC]/25 Only An Act of True Love.flac
Track gain : -3.79 dB Peak : 0.995117 CRC32 hash (test run) : D56EAE82 CRC32 hash : D56EAE82 CRC32 hash (skip zero) : 8B588F56 AccurateRip v1 signature : 8441DB63 AccurateRip v2 signature : 781F1045 ->Accurately ripped (v1+v2, confidence 7+32/42) Statistics Read error : 0 Jitter error (maybe fixed) : 0 Retry sector count : 0 Damaged sector count : 0
Track 26 Filename : /XLD rips/Compilations - 2014 - アナと雪の女王 オリジナル・サウンドトラック -デラックス・エディション- [FLAC]/26 Summit Siege.flac Pre-gap length : 00:01:54
Track gain : -6.31 dB Peak : 1.000000 CRC32 hash (test run) : E2711389 CRC32 hash : E2711389 CRC32 hash (skip zero) : 258195C7 AccurateRip v1 signature : D0D5EE1A AccurateRip v2 signature : 12181700 ->Accurately ripped (v1+v2, confidence 7+32/42) Statistics Read error : 0 Jitter error (maybe fixed) : 0 Retry sector count : 0 Damaged sector count : 0
Track 27 Filename : /XLD rips/Compilations - 2014 - アナと雪の女王 オリジナル・サウンドトラック -デラックス・エディション- [FLAC]/27 Return To Arendelle.flac
Track gain : -8.71 dB Peak : 1.000000 CRC32 hash (test run) : 4381A4D7 CRC32 hash : 4381A4D7 CRC32 hash (skip zero) : 43A171ED AccurateRip v1 signature : 8BEBF35C AccurateRip v2 signature : FC9F1279 ->Accurately ripped (v1+v2, confidence 7+32/42) Statistics Read error : 0 Jitter error (maybe fixed) : 0 Retry sector count : 0 Damaged sector count : 0
Track 28 Filename : /XLD rips/Compilations - 2014 - アナと雪の女王 オリジナル・サウンドトラック -デラックス・エディション- [FLAC]/28 Treason.flac Pre-gap length : 00:02:38
Track gain : -5.42 dB Peak : 1.000000 CRC32 hash (test run) : 7DE3C81E CRC32 hash : 7DE3C81E CRC32 hash (skip zero) : ADC6A475 AccurateRip v1 signature : D3765640 AccurateRip v2 signature : A1C61234 ->Accurately ripped (v1+v2, confidence 7+32/42) Statistics Read error : 0 Jitter error (maybe fixed) : 0 Retry sector count : 0 Damaged sector count : 0
Track 29 Filename : /XLD rips/Compilations - 2014 - アナと雪の女王 オリジナル・サウンドトラック -デラックス・エディション- [FLAC]/29 Some People Are Worth Melting For.flac Pre-gap length : 00:01:29
Track gain : -2.47 dB Peak : 1.000000 CRC32 hash (test run) : 0FA97498 CRC32 hash : 0FA97498 CRC32 hash (skip zero) : 11C26072 AccurateRip v1 signature : E17B6F9D AccurateRip v2 signature : BE1D7282 ->Accurately ripped (v1+v2, confidence 7+32/42) Statistics Read error : 0 Jitter error (maybe fixed) : 0 Retry sector count : 0 Damaged sector count : 0
Track 30 Filename : /XLD rips/Compilations - 2014 - アナと雪の女王 オリジナル・サウンドトラック -デラックス・エディション- [FLAC]/30 Whiteout.flac
Track gain : -4.72 dB Peak : 1.000000 CRC32 hash (test run) : 102CD5CB CRC32 hash : 102CD5CB CRC32 hash (skip zero) : 78AD1938 AccurateRip v1 signature : F2A9C286 AccurateRip v2 signature : F6028664 ->Accurately ripped (v1+v2, confidence 7+32/42) Statistics Read error : 0 Jitter error (maybe fixed) : 0 Retry sector count : 0 Damaged sector count : 0
Track 31 Filename : /XLD rips/Compilations - 2014 - アナと雪の女王 オリジナル・サウンドトラック -デラックス・エディション- [FLAC]/31 The Great Thaw (Vuelie Reprise).flac Pre-gap length : 00:01:59
Track gain : -5.47 dB Peak : 0.979736 CRC32 hash (test run) : 54E31CF9 CRC32 hash : 54E31CF9 CRC32 hash (skip zero) : AACEAFB7 AccurateRip v1 signature : BED48F8F AccurateRip v2 signature : 3BDDEF16 ->Accurately ripped (v1+v2, confidence 7+32/42) Statistics Read error : 0 Jitter error (maybe fixed) : 0 Retry sector count : 0 Damaged sector count : 0
Track 32 Filename : /XLD rips/Compilations - 2014 - アナと雪の女王 オリジナル・サウンドトラック -デラックス・エディション- [FLAC]/32 Epilogue.flac Pre-gap length : 00:00:57
Track gain : -3.47 dB Peak : 0.988770 CRC32 hash (test run) : 3B70D1E2 CRC32 hash : 3B70D1E2 CRC32 hash (skip zero) : 6759FDB6 AccurateRip v1 signature : 9E27FCAB AccurateRip v2 signature : 9C524F85 ->Accurately ripped (v1+v2, confidence 7+32/42) Statistics Read error : 0 Jitter error (maybe fixed) : 0 Retry sector count : 0 Damaged sector count : 0
Track 33 Filename : /XLD rips/Compilations - 2014 - アナと雪の女王 オリジナル・サウンドトラック -デラックス・エディション- [FLAC]/33 レット・イット・ゴー -ありのままで- (エンドソング).flac
Track gain : -7.53 dB Peak : 0.954987 CRC32 hash (test run) : 6C4DEB1C CRC32 hash : 6C4DEB1C CRC32 hash (skip zero) : 32E4BD5E AccurateRip v1 signature : CE868D06 AccurateRip v2 signature : 82CA69AD ->Accurately ripped (v1+v2, confidence 7+32/42) Statistics Read error : 0 Jitter error (maybe fixed) : 0 Retry sector count : 0 Damaged sector count : 0
No errors occurred
End of status report
-----BEGIN XLD SIGNATURE-----zZ97Iu65hdHJMpYyfM7XS_SDJiBDiKbdua91uGaHvmS_KvbfviAW1v0VUjirbox3mXFJHuHZxYQ4Zj3B.TLxDSu_NLL9xSTomUzSyzW-----END XLD SIGNATURE-----

CD2

X Lossless Decoder version 20140504 (147.0)
XLD extraction logfile from 2014-07-31 23:27:37 +0900
Various Artists / アナと雪の女王 オリジナル・サウンドトラック -デラックス・エディション-
Used drive : TSSTcorp CDDVDW SE-218CB (revision MF00)Media type : Pressed CD
Ripper mode : XLD Secure RipperDisable audio cache : OK for the drive with a cache less than 1375KiBMake use of C2 pointers : NORead offset correction : 6Max retry count : 100Gap status : Analyzed, Appended
TOC of the extracted CD Track | Start | Length | Start sector | End sector --------------------------------------------------------- 1 | 00:00:00 | 01:46:55 | 0 | 8004 2 | 01:46:55 | 03:28:08 | 8005 | 23612 3 | 05:14:63 | 03:44:70 | 23613 | 40482 4 | 08:59:58 | 02:07:09 | 40483 | 50016 5 | 11:06:67 | 03:44:46 | 50017 | 66862 6 | 14:51:38 | 00:50:72 | 66863 | 70684 7 | 15:42:35 | 01:54:07 | 70685 | 79241 8 | 17:36:42 | 02:30:14 | 79242 | 90505 9 | 20:06:56 | 03:03:71 | 90506 | 104301 10 | 23:10:52 | 03:44:15 | 104302 | 121116 11 | 26:54:67 | 03:45:63 | 121117 | 138054 12 | 30:40:55 | 03:28:37 | 138055 | 153691 13 | 34:09:17 | 03:47:08 | 153692 | 170724 14 | 37:56:25 | 03:45:62 | 170725 | 187661 15 | 41:42:12 | 02:27:18 | 187662 | 198704
List of alternate offset correction values # | Absolute | Relative | Confidence ------------------------------------------ 1 | 31 | 25 | 4
AccurateRip Summary (DiscID: 0016f1b8-010754b5-c30a590f) Track 01 : OK (v1+v2, confidence 15/19) Track 02 : OK (v1+v2, confidence 15/19) Track 03 : OK (v1+v2, confidence 15/19) Track 04 : OK (v1+v2, confidence 15/19) Track 05 : OK (v1+v2, confidence 15/19) Track 06 : OK (v1+v2, confidence 15/19) Track 07 : OK (v1+v2, confidence 14/18) Track 08 : OK (v1+v2, confidence 15/19) Track 09 : OK (v1+v2, confidence 15/19) Track 10 : OK (v1+v2, confidence 15/19) Track 11 : OK (v1+v2, confidence 15/19) Track 12 : OK (v1+v2, confidence 15/19) Track 13 : OK (v1+v2, confidence 15/19) Track 14 : OK (v1+v2, confidence 15/19) Track 15 : OK (v1+v2, confidence 15/19) ->All tracks accurately ripped.
All Tracks Album gain : -8.12 dB Peak : 1.000000 Statistics Read error : 0 Jitter error (maybe fixed) : 0 Retry sector count : 12 Damaged sector count : 0
Track 01 Filename : /XLD rips/Compilations - 2014 - アナと雪の女王 オリジナル・サウンドトラック -デラックス・エディション- [FLAC]/01 氷の心.flac Pre-gap length : 00:02:00
Track gain : -8.53 dB Peak : 0.968170 CRC32 hash (test run) : 63EEBFDC CRC32 hash : 63EEBFDC CRC32 hash (skip zero) : 849F91C8 AccurateRip v1 signature : EC373964 AccurateRip v2 signature : 1021F202 ->Accurately ripped (v1+v2, confidence 3+12/19) Statistics Read error : 0 Jitter error (maybe fixed) : 0 Retry sector count : 0 Damaged sector count : 0
Track 02 Filename : /XLD rips/Compilations - 2014 - アナと雪の女王 オリジナル・サウンドトラック -デラックス・エディション- [FLAC]/02 雪だるまつくろう.flac Pre-gap length : 00:01:33
Track gain : -4.97 dB Peak : 0.968140 CRC32 hash (test run) : ACB26BC0 CRC32 hash : ACB26BC0 CRC32 hash (skip zero) : 610395AC AccurateRip v1 signature : 6E9A93A2 AccurateRip v2 signature : 16A650FC ->Accurately ripped (v1+v2, confidence 3+12/19) Statistics Read error : 0 Jitter error (maybe fixed) : 0 Retry sector count : 0 Damaged sector count : 0
Track 03 Filename : /XLD rips/Compilations - 2014 - アナと雪の女王 オリジナル・サウンドトラック -デラックス・エディション- [FLAC]/03 生まれてはじめて.flac Pre-gap length : 00:01:45
Track gain : -8.94 dB Peak : 0.968170 CRC32 hash (test run) : 8BD9918B CRC32 hash : 8BD9918B CRC32 hash (skip zero) : F752A5B3 AccurateRip v1 signature : C33E9E46 AccurateRip v2 signature : 0F3AEA0D ->Accurately ripped (v1+v2, confidence 3+12/19) Statistics Read error : 0 Jitter error (maybe fixed) : 0 Retry sector count : 0 Damaged sector count : 0
Track 04 Filename : /XLD rips/Compilations - 2014 - アナと雪の女王 オリジナル・サウンドトラック -デラックス・エディション- [FLAC]/04 とびら開けて.flac
Track gain : -8.15 dB Peak : 0.970367 CRC32 hash (test run) : 8936F940 CRC32 hash : 8936F940 CRC32 hash (skip zero) : F4C35F64 AccurateRip v1 signature : E36EAA87 AccurateRip v2 signature : C4237E8E ->Accurately ripped (v1+v2, confidence 3+12/19) Statistics Read error : 0 Jitter error (maybe fixed) : 0 Retry sector count : 0 Damaged sector count : 0
Track 05 Filename : /XLD rips/Compilations - 2014 - アナと雪の女王 オリジナル・サウンドトラック -デラックス・エディション- [FLAC]/05 レット・イット・ゴー ~ありのままで~.flac Pre-gap length : 00:02:29
Track gain : -8.15 dB Peak : 0.970367 CRC32 hash (test run) : 5DB74FD1 CRC32 hash : 5DB74FD1 CRC32 hash (skip zero) : A5AD1971 AccurateRip v1 signature : 3B6B08D5 AccurateRip v2 signature : A0DDD045 ->Accurately ripped (v1+v2, confidence 3+12/19) Statistics Read error : 0 Jitter error (maybe fixed) : 0 Retry sector count : 0 Damaged sector count : 0
Track 06 Filename : /XLD rips/Compilations - 2014 - アナと雪の女王 オリジナル・サウンドトラック -デラックス・エディション- [FLAC]/06 トナカイのほうがずっといい.flac Pre-gap length : 00:00:58
Track gain : -2.09 dB Peak : 0.787506 CRC32 hash (test run) : 82A577E8 CRC32 hash : 82A577E8 CRC32 hash (skip zero) : 6C3BF7E2 AccurateRip v1 signature : F070E968 AccurateRip v2 signature : B9CFDB67 ->Accurately ripped (v1+v2, confidence 3+12/19) Statistics Read error : 0 Jitter error (maybe fixed) : 0 Retry sector count : 0 Damaged sector count : 0
Track 07 Filename : /XLD rips/Compilations - 2014 - アナと雪の女王 オリジナル・サウンドトラック -デラックス・エディション- [FLAC]/07 あこがれの夏.flac
Track gain : -7.32 dB Peak : 0.966217 CRC32 hash (test run) : 25495ED4 CRC32 hash : 25495ED4 CRC32 hash (skip zero) : 8838DB95 AccurateRip v1 signature : 982BC340 AccurateRip v2 signature : 4695280B ->Accurately ripped (v1+v2, confidence 3+11/18) Statistics Read error : 0 Jitter error (maybe fixed) : 0 Retry sector count : 0 Damaged sector count : 0
Track 08 Filename : /XLD rips/Compilations - 2014 - アナと雪の女王 オリジナル・サウンドトラック -デラックス・エディション- [FLAC]/08 生まれてはじめて (リプライズ).flac Pre-gap length : 00:03:08
Track gain : -7.30 dB Peak : 0.962067 CRC32 hash (test run) : 6BF30BCE CRC32 hash : 6BF30BCE CRC32 hash (skip zero) : 6D6DC2F1 AccurateRip v1 signature : AB0D0595 AccurateRip v2 signature : 8845E982 ->Accurately ripped (v1+v2, confidence 3+12/19) Statistics Read error : 0 Jitter error (maybe fixed) : 0 Retry sector count : 0 Damaged sector count : 0
Track 09 Filename : /XLD rips/Compilations - 2014 - アナと雪の女王 オリジナル・サウンドトラック -デラックス・エディション- [FLAC]/09 愛さえあれば.flac Pre-gap length : 00:00:41
Track gain : -9.27 dB Peak : 0.970367 CRC32 hash (test run) : EBAED3DE CRC32 hash : EBAED3DE CRC32 hash (skip zero) : 5A64BEB1 AccurateRip v1 signature : E1755FC7 AccurateRip v2 signature : A811E129 ->Accurately ripped (v1+v2, confidence 3+12/19) Statistics Read error : 0 Jitter error (maybe fixed) : 0 Retry sector count : 0 Damaged sector count : 0
Track 10 Filename : /XLD rips/Compilations - 2014 - アナと雪の女王 オリジナル・サウンドトラック -デラックス・エディション- [FLAC]/10 レット・イット・ゴー ~ありのままで~.flac Pre-gap length : 00:01:62
Track gain : -9.09 dB Peak : 0.970367 CRC32 hash (test run) : 4A465041 CRC32 hash : 4A465041 CRC32 hash (skip zero) : 772F272C AccurateRip v1 signature : 1A585A06 AccurateRip v2 signature : 285F97EE ->Accurately ripped (v1+v2, confidence 3+12/19) Statistics Read error : 0 Jitter error (maybe fixed) : 0 Retry sector count : 0 Damaged sector count : 0
Track 11 Filename : /XLD rips/Compilations - 2014 - アナと雪の女王 オリジナル・サウンドトラック -デラックス・エディション- [FLAC]/11 レット・イット・ゴー(マルチ・ランゲージ・メドレー) 25ヵ国語Ver..flac Pre-gap length : 00:01:47
Track gain : -8.04 dB Peak : 1.000000 CRC32 hash (test run) : 81DAE500 CRC32 hash : 81DAE500 CRC32 hash (skip zero) : C74D6FF1 AccurateRip v1 signature : 1D373E51 AccurateRip v2 signature : A21F0A4B ->Accurately ripped (v1+v2, confidence 3+12/19) Statistics Read error : 0 Jitter error (maybe fixed) : 0 Retry sector count : 0 Damaged sector count : 0
Track 12 Filename : /XLD rips/Compilations - 2014 - アナと雪の女王 オリジナル・サウンドトラック -デラックス・エディション- [FLAC]/12 雪だるまつくろう(カラオケ・バージョン).flac Pre-gap length : 00:01:48
Track gain : -0.10 dB Peak : 0.968140 CRC32 hash (test run) : FC623F89 CRC32 hash : FC623F89 CRC32 hash (skip zero) : 4D52A535 AccurateRip v1 signature : 93D7DF1C AccurateRip v2 signature : D9B15C46 ->Accurately ripped (v1+v2, confidence 3+12/19) Statistics Read error : 0 Jitter error (maybe fixed) : 0 Retry sector count : 12 Damaged sector count : 0
Track 13 Filename : /XLD rips/Compilations - 2014 - アナと雪の女王 オリジナル・サウンドトラック -デラックス・エディション- [FLAC]/13 生まれてはじめて(カラオケ・バージョン).flac Pre-gap length : 00:01:47
Track gain : -6.04 dB Peak : 0.968140 CRC32 hash (test run) : C7F0D1A6 CRC32 hash : C7F0D1A6 CRC32 hash (skip zero) : 71D8C442 AccurateRip v1 signature : 402FBB90 AccurateRip v2 signature : E05EC601 ->Accurately ripped (v1+v2, confidence 3+12/19) Statistics Read error : 0 Jitter error (maybe fixed) : 0 Retry sector count : 0 Damaged sector count : 0
Track 14 Filename : /XLD rips/Compilations - 2014 - アナと雪の女王 オリジナル・サウンドトラック -デラックス・エディション- [FLAC]/14 レット・イット・ゴー(カラオケ・バージョン).flac Pre-gap length : 00:01:51
Track gain : -6.28 dB Peak : 1.000000 CRC32 hash (test run) : C31C57E4 CRC32 hash : C31C57E4 CRC32 hash (skip zero) : BDEECB28 AccurateRip v1 signature : 45FA7DB7 AccurateRip v2 signature : E4CC06BB ->Accurately ripped (v1+v2, confidence 3+12/19) Statistics Read error : 0 Jitter error (maybe fixed) : 0 Retry sector count : 0 Damaged sector count : 0
Track 15 Filename : /XLD rips/Compilations - 2014 - アナと雪の女王 オリジナル・サウンドトラック -デラックス・エディション- [FLAC]/15 生まれてはじめて(リプライズ)(カラオケ・バージョン).flac Pre-gap length : 00:01:50
Track gain : -5.28 dB Peak : 0.962067 CRC32 hash (test run) : 92445499 CRC32 hash : 92445499 CRC32 hash (skip zero) : 8D214DE6 AccurateRip v1 signature : 90DC225A AccurateRip v2 signature : 519BC0E5 ->Accurately ripped (v1+v2, confidence 3+12/19) Statistics Read error : 0 Jitter error (maybe fixed) : 0 Retry sector count : 0 Damaged sector count : 0
No errors occurred
End of status report
-----BEGIN XLD SIGNATURE-----TNqVDo6YfsA3Wi4ZNwnqFBu5ZzvScKf4VtZVRf9jz7ENZH_sjsZJYwxHPPoZpO6YJgrWSbgG4YKi4TYoT6hIlWH4PPewn_cVoc7lwAK-----END XLD SIGNATURE-----

Содержание индексной карты (.CUE)CD1

TITLE "アナと雪の女王 オリジナル・サウンドトラック -デラックス・エディション-"CATALOG 4988064630110REM GENRE "Soundtrack"REM DATE "2014"REM DISCNUMBER 1REM TOTALDISCS 2REM DISCID FD114621REM REPLAYGAIN_ALBUM_GAIN -7.34 dBREM REPLAYGAIN_ALBUM_PEAK 1.000000REM COMPILATION TRUEFILE "01 Frozen Heart.flac" WAVE TRACK 01 AUDIO TITLE "Frozen Heart" PERFORMER "Cast" ISRC USWD11366363 REM REPLAYGAIN_TRACK_GAIN -7.38 dB REM REPLAYGAIN_TRACK_PEAK 1.000000 INDEX 01 00:00:00 TRACK 02 AUDIO TITLE "Do You Want To Build A Snowman?" PERFORMER "Kristen Bell, Agatha Lee Monn & Katie Lopez" ISRC USWD11366364 REM REPLAYGAIN_TRACK_GAIN -3.41 dB REM REPLAYGAIN_TRACK_PEAK 1.000000 INDEX 00 01:45:22FILE "02 Do You Want To Build A Snowman.flac" WAVE INDEX 01 00:00:00 TRACK 03 AUDIO TITLE "For The First Time In Forever" PERFORMER "Kristen Bell & Idina Menzel" ISRC USWD11366365 REM REPLAYGAIN_TRACK_GAIN -8.47 dB REM REPLAYGAIN_TRACK_PEAK 1.000000 INDEX 00 03:26:38FILE "03 For The First Time In Forever.flac" WAVE INDEX 01 00:00:00FILE "04 Love Is An Open Door.flac" WAVE TRACK 04 AUDIO TITLE "Love Is An Open Door" PERFORMER "Kristen Bell & Santino Fontana" ISRC USWD11366375 REM REPLAYGAIN_TRACK_GAIN -8.81 dB REM REPLAYGAIN_TRACK_PEAK 1.000000 INDEX 01 00:00:00 TRACK 05 AUDIO TITLE "Let It Go" PERFORMER "Idina Menzel" REM REPLAYGAIN_TRACK_GAIN -7.96 dB REM REPLAYGAIN_TRACK_PEAK 1.000000 INDEX 00 02:04:55FILE "05 Let It Go.flac" WAVE INDEX 01 00:00:00 TRACK 06 AUDIO TITLE "Reindeer(s) Are Better Than People" PERFORMER "Jonathan Groff" ISRC USWD11366377 REM REPLAYGAIN_TRACK_GAIN -3.23 dB REM REPLAYGAIN_TRACK_PEAK 0.988159 INDEX 00 03:43:63FILE "06 Reindeer(s) Are Better Than People.flac" WAVE INDEX 01 00:00:00FILE "07 In Summer.flac" WAVE TRACK 07 AUDIO TITLE "In Summer" PERFORMER "Josh Gad" ISRC USWD11366378 REM REPLAYGAIN_TRACK_GAIN -6.72 dB REM REPLAYGAIN_TRACK_PEAK 0.991913 INDEX 01 00:00:00 TRACK 08 AUDIO TITLE "For The First Time In Forever (Reprise)" PERFORMER "Kristen Bell & Idina Menzel" ISRC USWD11366379 REM REPLAYGAIN_TRACK_GAIN -7.16 dB REM REPLAYGAIN_TRACK_PEAK 0.999969 INDEX 00 01:50:74FILE "08 For The First Time In Forever (Reprise).flac" WAVE INDEX 01 00:00:00 TRACK 09 AUDIO TITLE "Fixer Upper" PERFORMER "Frozen Cast Feat. Maia Wilson" ISRC USWD11366380 REM REPLAYGAIN_TRACK_GAIN -9.06 dB REM REPLAYGAIN_TRACK_PEAK 1.000000 INDEX 00 02:29:49FILE "09 Fixer Upper.flac" WAVE INDEX 01 00:00:00FILE "10 Let It Go (Demi Lovato Version).flac" WAVE TRACK 10 AUDIO TITLE "Let It Go (Demi Lovato Version)" PERFORMER "Demi Lovato" ISRC USWD11366344 REM REPLAYGAIN_TRACK_GAIN -8.52 dB REM REPLAYGAIN_TRACK_PEAK 1.000000 INDEX 01 00:00:00 TRACK 11 AUDIO TITLE "Vuelie (Featuring Cantus)" PERFORMER "Christophe Beck & Frode Fjellheim" ISRC USWD11366382 REM REPLAYGAIN_TRACK_GAIN -5.55 dB REM REPLAYGAIN_TRACK_PEAK 0.988647 INDEX 00 03:44:30FILE "11 Vuelie (Featuring Cantus).flac" WAVE INDEX 01 00:00:00 TRACK 12 AUDIO TITLE "Elsa And Anna" PERFORMER "Christophe Beck" ISRC USWD11366383 REM REPLAYGAIN_TRACK_GAIN -2.83 dB REM REPLAYGAIN_TRACK_PEAK 1.000000 INDEX 00 01:35:74FILE "12 Elsa And Anna.flac" WAVE INDEX 01 00:00:00FILE "13 The Trolls.flac" WAVE TRACK 13 AUDIO TITLE "The Trolls" PERFORMER "Christophe Beck" ISRC USWD11366384 REM REPLAYGAIN_TRACK_GAIN -1.33 dB REM REPLAYGAIN_TRACK_PEAK 0.978668 INDEX 01 00:00:00FILE "14 Coronation Day.flac" WAVE TRACK 14 AUDIO TITLE "Coronation Day" PERFORMER "Christophe Beck" ISRC USWD11366385 REM REPLAYGAIN_TRACK_GAIN -4.03 dB REM REPLAYGAIN_TRACK_PEAK 0.998627 INDEX 01 00:00:00FILE "15 Heimr Arnadalr.flac" WAVE TRACK 15 AUDIO TITLE "Heimr Arnadalr" PERFORMER "Christophe Beck" ISRC USWD11366386 REM REPLAYGAIN_TRACK_GAIN -1.37 dB REM REPLAYGAIN_TRACK_PEAK 0.988007 INDEX 01 00:00:00FILE "16 Winter's Waltz.flac" WAVE TRACK 16 AUDIO TITLE "Winter's Waltz" PERFORMER "Christophe Beck" ISRC USWD11366387 REM REPLAYGAIN_TRACK_GAIN -3.50 dB REM REPLAYGAIN_TRACK_PEAK 0.975464 INDEX 01 00:00:00 TRACK 17 AUDIO TITLE "Sorcery" PERFORMER "Christophe Beck" ISRC USWD11366388 REM REPLAYGAIN_TRACK_GAIN -5.97 dB REM REPLAYGAIN_TRACK_PEAK 1.000000 INDEX 00 00:58:69FILE "17 Sorcery.flac" WAVE INDEX 01 00:00:00 TRACK 18 AUDIO TITLE "Royal Pursuit" PERFORMER "Christophe Beck" ISRC USWD11366389 REM REPLAYGAIN_TRACK_GAIN -6.20 dB REM REPLAYGAIN_TRACK_PEAK 1.000000 INDEX 00 03:16:04FILE "18 Royal Pursuit.flac" WAVE INDEX 01 00:00:00FILE "19 Onward and Upward.flac" WAVE TRACK 19 AUDIO TITLE "Onward and Upward" PERFORMER "Christophe Beck" ISRC USWD11366390 REM REPLAYGAIN_TRACK_GAIN -3.94 dB REM REPLAYGAIN_TRACK_PEAK 0.997284 INDEX 01 00:00:00FILE "20 Wolves.flac" WAVE TRACK 20 AUDIO TITLE "Wolves" PERFORMER "Christophe Beck" ISRC USWD11366391 REM REPLAYGAIN_TRACK_GAIN -7.37 dB REM REPLAYGAIN_TRACK_PEAK 1.000000 INDEX 01 00:00:00FILE "21 The North Mountain.flac" WAVE TRACK 21 AUDIO TITLE "The North Mountain" PERFORMER "Christophe Beck" ISRC USWD11366392 REM REPLAYGAIN_TRACK_GAIN -0.21 dB REM REPLAYGAIN_TRACK_PEAK 0.980133 INDEX 01 00:00:00 TRACK 22 AUDIO TITLE "We Were So Close" PERFORMER "Christophe Beck" ISRC USWD11366393 REM REPLAYGAIN_TRACK_GAIN -3.13 dB REM REPLAYGAIN_TRACK_PEAK 0.979401 INDEX 00 01:33:19FILE "22 We Were So Close.flac" WAVE INDEX 01 00:00:00FILE "23 Marshmallow Attack!.flac" WAVE TRACK 23 AUDIO TITLE "Marshmallow Attack!" PERFORMER "Christophe Beck" ISRC USWD11366394 REM REPLAYGAIN_TRACK_GAIN -7.96 dB REM REPLAYGAIN_TRACK_PEAK 1.000000 INDEX 01 00:00:00 TRACK 24 AUDIO TITLE "Conceal, Don't Feel" PERFORMER "Christophe Beck" ISRC USWD11366396 REM REPLAYGAIN_TRACK_GAIN -2.38 dB REM REPLAYGAIN_TRACK_PEAK 0.735229 INDEX 00 01:42:51FILE "24 Conceal, Don't Feel.flac" WAVE INDEX 01 00:00:00FILE "25 Only An Act of True Love.flac" WAVE TRACK 25 AUDIO TITLE "Only An Act of True Love" PERFORMER "Christophe Beck" ISRC USWD11366395 REM REPLAYGAIN_TRACK_GAIN -3.79 dB REM REPLAYGAIN_TRACK_PEAK 0.995117 INDEX 01 00:00:00 TRACK 26 AUDIO TITLE "Summit Siege" PERFORMER "Christophe Beck" ISRC USWD11366397 REM REPLAYGAIN_TRACK_GAIN -6.31 dB REM REPLAYGAIN_TRACK_PEAK 1.000000 INDEX 00 01:05:56FILE "26 Summit Siege.flac" WAVE INDEX 01 00:00:00FILE "27 Return To Arendelle.flac" WAVE TRACK 27 AUDIO TITLE "Return To Arendelle" PERFORMER "Christophe Beck" ISRC USWD11366398 REM REPLAYGAIN_TRACK_GAIN -8.71 dB REM REPLAYGAIN_TRACK_PEAK 1.000000 INDEX 01 00:00:00 TRACK 28 AUDIO TITLE "Treason" PERFORMER "Christophe Beck" ISRC USWD11366399 REM REPLAYGAIN_TRACK_GAIN -5.42 dB REM REPLAYGAIN_TRACK_PEAK 1.000000 INDEX 00 01:36:32FILE "28 Treason.flac" WAVE INDEX 01 00:00:00 TRACK 29 AUDIO TITLE "Some People Are Worth Melting For" PERFORMER "Christophe Beck" ISRC USWD11366400 REM REPLAYGAIN_TRACK_GAIN -2.47 dB REM REPLAYGAIN_TRACK_PEAK 1.000000 INDEX 00 01:35:17FILE "29 Some People Are Worth Melting For.flac" WAVE INDEX 01 00:00:00FILE "30 Whiteout.flac" WAVE TRACK 30 AUDIO TITLE "Whiteout" PERFORMER "Christophe Beck" ISRC USWD11366401 REM REPLAYGAIN_TRACK_GAIN -4.72 dB REM REPLAYGAIN_TRACK_PEAK 1.000000 INDEX 01 00:00:00 TRACK 31 AUDIO TITLE "The Great Thaw (Vuelie Reprise)" PERFORMER "Christophe Beck & Frode Fjellheim" ISRC USWD11366402 REM REPLAYGAIN_TRACK_GAIN -5.47 dB REM REPLAYGAIN_TRACK_PEAK 0.979736 INDEX 00 04:15:44FILE "31 The Great Thaw (Vuelie Reprise).flac" WAVE INDEX 01 00:00:00 TRACK 32 AUDIO TITLE "Epilogue" PERFORMER "Christophe Beck" ISRC USWD11366403 REM REPLAYGAIN_TRACK_GAIN -3.47 dB REM REPLAYGAIN_TRACK_PEAK 0.988770 INDEX 00 02:28:52FILE "32 Epilogue.flac" WAVE INDEX 01 00:00:00FILE "33 レット・イット・ゴー -ありのままで- (エンドソング).flac" WAVE TRACK 33 AUDIO TITLE "レット・イット・ゴー -ありのままで- (エンドソング)" PERFORMER "May J." ISRC USWD11366849 REM REPLAYGAIN_TRACK_GAIN -7.53 dB REM REPLAYGAIN_TRACK_PEAK 0.954987 INDEX 01 00:00:00

CD2

TITLE "アナと雪の女王 オリジナル・サウンドトラック -デラックス・エディション-"CATALOG 4988064630288REM GENRE "Soundtrack"REM DATE "2014"REM DISCNUMBER 2REM TOTALDISCS 2REM DISCID C30A590FREM REPLAYGAIN_ALBUM_GAIN -8.12 dBREM REPLAYGAIN_ALBUM_PEAK 1.000000REM COMPILATION TRUEFILE "01 氷の心.flac" WAVE TRACK 01 AUDIO TITLE "氷の心" PERFORMER "小西のりゆき、kuma、岡田誠、村上勘次朗、加藤凱也、鹿志村篤臣、朝隈濯朗、根本泰彦" ISRC USWD11467535 REM REPLAYGAIN_TRACK_GAIN -8.53 dB REM REPLAYGAIN_TRACK_PEAK 0.968170 INDEX 01 00:00:00 TRACK 02 AUDIO TITLE "雪だるまつくろう" PERFORMER "神田沙也加、稲葉菜月、諸星すみれ" ISRC USWD11467536 REM REPLAYGAIN_TRACK_GAIN -4.97 dB REM REPLAYGAIN_TRACK_PEAK 0.968140 INDEX 00 01:45:22FILE "02 雪だるまつくろう.flac" WAVE INDEX 01 00:00:00 TRACK 03 AUDIO TITLE "生まれてはじめて" PERFORMER "神田沙也加、松たか子" ISRC USWD11467537 REM REPLAYGAIN_TRACK_GAIN -8.94 dB REM REPLAYGAIN_TRACK_PEAK 0.968170 INDEX 00 03:26:38FILE "03 生まれてはじめて.flac" WAVE INDEX 01 00:00:00FILE "04 とびら開けて.flac" WAVE TRACK 04 AUDIO TITLE "とびら開けて" PERFORMER "神田沙也加、津田英佑" ISRC USWD11467538 REM REPLAYGAIN_TRACK_GAIN -8.15 dB REM REPLAYGAIN_TRACK_PEAK 0.970367 INDEX 01 00:00:00 TRACK 05 AUDIO TITLE "レット・イット・ゴー ~ありのままで~" PERFORMER "松たか子" ISRC USWD11467539 REM REPLAYGAIN_TRACK_GAIN -8.15 dB REM REPLAYGAIN_TRACK_PEAK 0.970367 INDEX 00 02:04:55FILE "05 レット・イット・ゴー ~ありのままで~.flac" WAVE INDEX 01 00:00:00 TRACK 06 AUDIO TITLE "トナカイのほうがずっといい" PERFORMER "原慎一郎" ISRC USWD11467540 REM REPLAYGAIN_TRACK_GAIN -2.09 dB REM REPLAYGAIN_TRACK_PEAK 0.787506 INDEX 00 03:43:63FILE "06 トナカイのほうがずっといい.flac" WAVE INDEX 01 00:00:00FILE "07 あこがれの夏.flac" WAVE TRACK 07 AUDIO TITLE "あこがれの夏" PERFORMER "ピエール瀧" REM REPLAYGAIN_TRACK_GAIN -7.32 dB REM REPLAYGAIN_TRACK_PEAK 0.966217 INDEX 01 00:00:00 TRACK 08 AUDIO TITLE "生まれてはじめて (リプライズ)" PERFORMER "神田沙也加、松たか子" REM REPLAYGAIN_TRACK_GAIN -7.30 dB REM REPLAYGAIN_TRACK_PEAK 0.962067 INDEX 00 01:50:74FILE "08 生まれてはじめて (リプライズ).flac" WAVE INDEX 01 00:00:00 TRACK 09 AUDIO TITLE "愛さえあれば" PERFORMER "杉村理加、安崎求" ISRC USWD11467543 REM REPLAYGAIN_TRACK_GAIN -9.27 dB REM REPLAYGAIN_TRACK_PEAK 0.970367 INDEX 00 02:29:48FILE "09 愛さえあれば.flac" WAVE INDEX 01 00:00:00 TRACK 10 AUDIO TITLE "レット・イット・ゴー ~ありのままで~" PERFORMER "May J." ISRC USWD11467544 REM REPLAYGAIN_TRACK_GAIN -9.09 dB REM REPLAYGAIN_TRACK_PEAK 0.970367 INDEX 00 03:02:09FILE "10 レット・イット・ゴー ~ありのままで~.flac" WAVE INDEX 01 00:00:00 TRACK 11 AUDIO TITLE "レット・イット・ゴー(マルチ・ランゲージ・メドレー) 25ヵ国語Ver." PERFORMER "オムニバス" ISRC USWD11467842 REM REPLAYGAIN_TRACK_GAIN -8.04 dB REM REPLAYGAIN_TRACK_PEAK 1.000000 INDEX 00 03:42:43FILE "11 レット・イット・ゴー(マルチ・ランゲージ・メドレー) 25ヵ国語Ver..flac" WAVE INDEX 01 00:00:00 TRACK 12 AUDIO TITLE "雪だるまつくろう(カラオケ・バージョン)" PERFORMER "オムニバス" ISRC USWD11467885 REM REPLAYGAIN_TRACK_GAIN -0.10 dB REM REPLAYGAIN_TRACK_PEAK 0.968140 INDEX 00 03:44:15FILE "12 雪だるまつくろう(カラオケ・バージョン).flac" WAVE INDEX 01 00:00:00 TRACK 13 AUDIO TITLE "生まれてはじめて(カラオケ・バージョン)" PERFORMER "オムニバス" ISRC USWD11467886 REM REPLAYGAIN_TRACK_GAIN -6.04 dB REM REPLAYGAIN_TRACK_PEAK 0.968140 INDEX 00 03:26:65FILE "13 生まれてはじめて(カラオケ・バージョン).flac" WAVE INDEX 01 00:00:00 TRACK 14 AUDIO TITLE "レット・イット・ゴー(カラオケ・バージョン)" PERFORMER "オムニバス" ISRC USWD11366426 REM REPLAYGAIN_TRACK_GAIN -6.28 dB REM REPLAYGAIN_TRACK_PEAK 1.000000 INDEX 00 03:45:32FILE "14 レット・イット・ゴー(カラオケ・バージョン).flac" WAVE INDEX 01 00:00:00 TRACK 15 AUDIO TITLE "生まれてはじめて(リプライズ)(カラオケ・バージョン)" PERFORMER "オムニバス" ISRC USWD11467887 REM REPLAYGAIN_TRACK_GAIN -5.28 dB REM REPLAYGAIN_TRACK_PEAK 0.962067 INDEX 00 03:44:12FILE "15 生まれてはじめて(リプライズ)(カラオケ・バージョン).flac" WAVE INDEX 01 00:00:00

Лог проверки качестваCD1

-----------------------
DON'T MODIFY THIS FILE
-----------------------
PERFORMER: auCDtect Task Manager, ver. 1.6.0 RC1 build 1.6.0.1Copyright (c) 2008-2010 y-soft. All rights reservedhttp://y-soft.org
ANALYZER: auCDtect: CD records authenticity detector, version 0.8.2Copyright (c) 2004 Oleg Berngardt. All rights reserved.Copyright (c) 2004 Alexander Djourik. All rights reserved.
FILE: 33 レット・イット・ゴー -ありのままで- (エンドソング).flac Size: 26983419 Hash: C779C44FD971D3FFD984C22C47C517A1 Accuracy: -m0 Conclusion: CDDA 100% Signature: F5F9C2ABB372DDB15BA6248BF936E80A441B4E96FILE: 32 Epilogue.flac Size: 16041409 Hash: 2A41DE828B162FC6CAC383DD6DABE4CF Accuracy: -m0 Conclusion: CDDA 100% Signature: 9679AF0A1243916C9A6835296C7E4357CB58D825FILE: 31 The Great Thaw (Vuelie Reprise).flac Size: 12432828 Hash: 388FB79302E34D93F9725AA1443F29F5 Accuracy: -m0 Conclusion: CDDA 100% Signature: F6DDEF1F946140E8C7CD8ACAB524A4E39FF44FFBFILE: 30 Whiteout.flac Size: 24083173 Hash: 2C770DC753296BBACAAEE1D656E0EE93 Accuracy: -m0 Conclusion: CDDA 99% Signature: 91DF928D5F86FEF99886C4F74D2B696F746DF832FILE: 29 Some People Are Worth Melting For.flac Size: 9001612 Hash: CFDB956EAF38CC2FA1B19B02D5378C50 Accuracy: -m0 Conclusion: CDDA 100% Signature: 06D17A44BCA4542C52F8ADFBC25AFC24D58A2C55FILE: 28 Treason.flac Size: 7490579 Hash: 64EEC3E2287656E4175EC56E028D4A7C Accuracy: -m0 Conclusion: CDDA 100% Signature: 23D8D9F382B94DD1D3E4456679C0BDB51A82EC6DFILE: 27 Return To Arendelle.flac Size: 8875917 Hash: 5E6F1EBA769290FCBFE0DA96BED5AD59 Accuracy: -m0 Conclusion: CDDA 100% Signature: 269030BE8C602475A740A63DA01BB717F92B3BD7FILE: 26 Summit Siege.flac Size: 16513311 Hash: FF214FBBE11A7613F5FC1E4015945B4E Accuracy: -m0 Conclusion: CDDA 100% Signature: 947BA1FE44A99A908B110DCF8412B6C32ED3D799FILE: 25 Only An Act of True Love.flac Size: 5551492 Hash: F7353A50ECA4519481B2D0EF5A087F8D Accuracy: -m0 Conclusion: CDDA 100% Signature: 711BBA4FCB874BCACF8E1C4E973FED5A11ED19A5FILE: 24 Conceal, Don't Feel.flac Size: 5772412 Hash: 7100B51CD1B84BD76A24176346522A8B Accuracy: -m0 Conclusion: CDDA 99% Signature: 0513B374E05164DB0127BA24F277C7D820BC0A43FILE: 23 Marshmallow Attack!.flac Size: 10013907 Hash: CD36F5082A0921966E12E1D6802F6C76 Accuracy: -m0 Conclusion: CDDA 100% Signature: F7B46EF1612D3C99169CFCE2CB896C8AB7071BAAFILE: 22 We Were So Close.flac Size: 9225649 Hash: 607438ABA0620FCBADA4024FD3D9DD2E Accuracy: -m0 Conclusion: CDDA 100% Signature: 82B2123BEF8A79B2979F70918452483C008071F2FILE: 21 The North Mountain.flac Size: 7428086 Hash: 065BFAF780B1FF775A870678485B2342 Accuracy: -m0 Conclusion: CDDA 100% Signature: 9B4FAE47605CB1CB359716FF55A5C3B9F347D287FILE: 20 Wolves.flac Size: 10631247 Hash: 372F25A96F328306DAF40D2F5E6C9259 Accuracy: -m0 Conclusion: CDDA 100% Signature: B19C19D02E821CCD9FE9032381127CD843500910FILE: 19 Onward and Upward.flac Size: 9491657 Hash: 80728310BADFD9AAB4FEFB363E05A893 Accuracy: -m0 Conclusion: CDDA 100% Signature: B7450A8DE53FAF7170CA71A202889541CEE93CECFILE: 18 Royal Pursuit.flac Size: 6034028 Hash: 52F10E9C9611E8340496E7733C6AD5A3 Accuracy: -m0 Conclusion: CDDA 100% Signature: 7A803C4016D4B4DA73D60C7B881B825141B8B277FILE: 17 Sorcery.flac Size: 16872236 Hash: BF6B0889C5BED411AC5004653BB53CF1 Accuracy: -m0 Conclusion: CDDA 99% Signature: 886584F5DF16A21991FFA60AAA9373CC83C29CF0FILE: 16 Winter's Waltz.flac Size: 5595344 Hash: 0E1DB790FE76CD352579E25230D3D96E Accuracy: -m0 Conclusion: CDDA 100% Signature: 2157E268B04285A3AF3DCEB9F63D80DDE3CA2BA9FILE: 15 Heimr Arnadalr.flac Size: 7112731 Hash: BBE0D023CF2A80300FD6A0B940B77DB4 Accuracy: -m0 Conclusion: CDDA 100% Signature: 4B4055137177BF205049E5F90D3A645E1B10A152FILE: 14 Coronation Day.flac Size: 6667003 Hash: 1F2EA0EC3F6B25F1882DCC103FEEA7BF Accuracy: -m0 Conclusion: CDDA 100% Signature: C2E64A79C1ED9A7085B5660AE82D8DC0A2BDBF06FILE: 13 The Trolls.flac Size: 9799546 Hash: 751C9CEF96DE9EC86D892D38D8478B1E Accuracy: -m0 Conclusion: CDDA 100% Signature: CFEEF9E940987213C26F29E8A5AE6EC7FB32D736FILE: 12 Elsa And Anna.flac Size: 13718042 Hash: 2E16B8B8E7512A53C5EBA08DA0BD7D59 Accuracy: -m0 Conclusion: CDDA 99% Signature: 06BAD14B027ADA2E3C0D4E6A0FC957576E7CE75FFILE: 11 Vuelie (Featuring Cantus).flac Size: 9135642 Hash: 5FCD5BDFC9BF9F69ACB73885FE5779A1 Accuracy: -m0 Conclusion: CDDA 100% Signature: B9241A8031345CA2EA226E224D0C6FD06428FCA7FILE: 10 Let It Go (Demi Lovato Version).flac Size: 27645133 Hash: BB4A8181587C66FA6F24566601D1AB48 Accuracy: -m0 Conclusion: CDDA 100% Signature: 3F5AA16469FCEAB8D1E5400817A4939BC85793D4FILE: 09 Fixer Upper.flac Size: 20880162 Hash: 9869D883132A5F67047315FEDB782CB5 Accuracy: -m0 Conclusion: CDDA 100% Signature: ED99F4E481FF78F6D310C3C118E6CA0FB6F70B29FILE: 08 For The First Time In Forever (Reprise).flac Size: 15215721 Hash: 2D65B4D5CA9EE22A6B1E46E9DDB03EC6 Accuracy: -m0 Conclusion: CDDA 100% Signature: 9E1C38F50B24B2C1613380350677CAF9B3B5A111FILE: 07 In Summer.flac Size: 12001081 Hash: B18B6A6A35AC7AC24A38D29EE65F4F4B Accuracy: -m0 Conclusion: CDDA 100% Signature: 4A4D5A234A325379CA38935E09FA41B7ABE6C96AFILE: 06 Reindeer(s) Are Better Than People.flac Size: 4411880 Hash: A1DBC4B5E644DCCDE467A082EE863464 Accuracy: -m0 Conclusion: CDDA 99% Signature: 6A214519EC9DF7CC429FD377A3BD7DC52AF5962EFILE: 05 Let It Go.flac Size: 24282279 Hash: 692E1D5F730F61F19CCF64A7CBE36D06 Accuracy: -m0 Conclusion: CDDA 99% Signature: 78D28AE520BC1338FBFDA093F91FDB9DDE9DCD97FILE: 04 Love Is An Open Door.flac Size: 13981581 Hash: 38A2580CA547F6E7E914BBA805DB331E Accuracy: -m0 Conclusion: CDDA 100% Signature: 10C63F0E26860ABFBD1F992FA3D5744679705089FILE: 03 For The First Time In Forever.flac Size: 24412507 Hash: 787C0BFB5690EF4B9410F4A5138C7B68 Accuracy: -m0 Conclusion: CDDA 100% Signature: 8ABEF9FC2B7645AF5FDA964047AD975465B76F00FILE: 02 Do You Want To Build A Snowman.flac Size: 17587131 Hash: AE457E3CCD9A7E610A7C58E2059E30A6 Accuracy: -m0 Conclusion: CDDA 100% Signature: 486A177A6BFC77FB1857BB98CE34E5A92358473CFILE: 01 Frozen Heart.flac Size: 11896056 Hash: B3EAB858A82D23B32B4E10FD8BC0C83E Accuracy: -m0 Conclusion: CDDA 100% Signature: AD1F346A4AB1BF1913446EBC08C253CDF8BED355

CD2

-----------------------
DON'T MODIFY THIS FILE
-----------------------
PERFORMER: auCDtect Task Manager, ver. 1.6.0 RC1 build 1.6.0.1Copyright (c) 2008-2010 y-soft. All rights reservedhttp://y-soft.org
ANALYZER: auCDtect: CD records authenticity detector, version 0.8.2Copyright (c) 2004 Oleg Berngardt. All rights reserved.Copyright (c) 2004 Alexander Djourik. All rights reserved.
FILE: 15 生まれてはじめて(リプライズ)(カラオケ・バージョン).flac Size: 12302253 Hash: EB8970B29CBBC7DEEEF9E3D8196227E9 Accuracy: -m0 Conclusion: CDDA 99% Signature: 2984F8F1F0542C17538706C8C4E54D5453AECE4CFILE: 14 レット・イット・ゴー(カラオケ・バージョン).flac Size: 22329647 Hash: EB86C0CC2FD853E3BB40207E23EDA4C0 Accuracy: -m0 Conclusion: CDDA 100% Signature: 4BD36B94A897C274DA7A929E6147545E4E2AD648FILE: 13 生まれてはじめて(カラオケ・バージョン).flac Size: 21494625 Hash: 1B6F37CBEBD57C0821B178D22ADE4583 Accuracy: -m0 Conclusion: CDDA 100% Signature: 0BA09DDAFDE93FA5C8CF5BBECC15B5EAD6EC1E4CFILE: 12 雪だるまつくろう(カラオケ・バージョン).flac Size: 15597359 Hash: 995C3E4C3AC2CD61CDA4FE3376894D03 Accuracy: -m0 Conclusion: CDDA 100% Signature: 3AB96C79AC03C94E47C9A3C9F502395B37D65C4DFILE: 11 レット・イット・ゴー(マルチ・ランゲージ・メドレー) 25ヵ国語Ver..flac Size: 23677512 Hash: 21F980FED3DEA42F96D157A58D099383 Accuracy: -m0 Conclusion: CDDA 100% Signature: 100C29CC1EE04B679BB58345A098F7CB14FE0432FILE: 10 レット・イット・ゴー ~ありのままで~.flac Size: 24825837 Hash: A999E549F05D9440CC766226AB324EBB Accuracy: -m0 Conclusion: CDDA 100% Signature: 8454B88D3D061578606D33D4D6F3B5D72CF6EE8EFILE: 09 愛さえあれば.flac Size: 20559714 Hash: 4E16018FBE1F2F852E340737F6C44256 Accuracy: -m0 Conclusion: CDDA 100% Signature: B44F6B40739E8AD8F1AC6C54B495A99B8EDC7833FILE: 08 生まれてはじめて (リプライズ).flac Size: 13878841 Hash: F870DCF4C5FC13FA76C1646D2E2EE8DD Accuracy: -m0 Conclusion: CDDA 100% Signature: 64BE8338ECF7FF39669353C488173F19A5890AE1FILE: 07 あこがれの夏.flac Size: 11679764 Hash: 57FDDCCC1C8BB4F99820BE5E9FD23A3A Accuracy: -m0 Conclusion: CDDA 100% Signature: 1DDC8DC3F3B3C29CD4DB344AC48BA2F4657D170FFILE: 06 トナカイのほうがずっといい.flac Size: 3673956 Hash: 7D6D69AF5365491A3AFE5615D5527718 Accuracy: -m0 Conclusion: CDDA 100% Signature: ECF3E9AE9DF82DAB8FC63DECFAF183877EF9C0C8FILE: 05 レット・イット・ゴー ~ありのままで~.flac Size: 24320343 Hash: 5CF9E665B8FD06819CB0B2F4CB500873 Accuracy: -m0 Conclusion: CDDA 100% Signature: 51863B4A21313B8F302EFFEFAEB041BEFFC3D728FILE: 04 とびら開けて.flac Size: 13339916 Hash: 6F47DCF7782818FDFDE1C68655A74F0C Accuracy: -m0 Conclusion: CDDA 100% Signature: DC72F7E899D1AA24AEE958A4F1AD144035305E6DFILE: 03 生まれてはじめて.flac Size: 23413971 Hash: 45EE25B7E971C5A2526FAD33F7A55459 Accuracy: -m0 Conclusion: CDDA 100% Signature: 466E4C3773A4C5F310519DBCBFC333C1FBD5DDBFFILE: 02 雪だるまつくろう.flac Size: 16618512 Hash: 9B9058DE70DE067B025ADFB0A1C89060 Accuracy: -m0 Conclusion: CDDA 86% Signature: 4C59E9E8101B70980A62D0298A9A1DD498C78AFAFILE: 01 氷の心.flac Size: 11032822 Hash: 18D1B6563399A5C5DF1AFF5BC492B318 Accuracy: -m0 Conclusion: CDDA 100% Signature: 7675D45D57AD28668F3D53B8A63A3CC312E9A47B
[teatrix.ru].t10446.torrent 
Торрент: Зарегистрирован [ 2015-11-01 20:51 ] · B948CDBAE4E6ECFD978663F3A8C30EE09BE1E640

Скачать .torrent

Скачать

20 KB

Статус: проверено
Скачан: 0 раз
Размер: 714 MB
terms.php



Быстрый ответ

Имя:

      
Для отправки сообщений необходимо включить JavaScript
Показать сообщения:    

Текущее время: 05-Дек 15:34

Часовой пояс: UTC + 3


Вы можете начинать темы
Вы можете отвечать на сообщения
Вы не можете редактировать свои сообщения
Вы не можете удалять свои сообщения
Вы не можете голосовать в опросах
Вы не можете прикреплять файлы к сообщениям
Вы можете скачивать файлы