(Score) Карточный Домик / House of Cards: Seasons 1-2 (by Jeff Beal) - 2013-2014, FLAC (image+.cue), lossless


Статистика раздачи [Обновить пиров]
Размер:  939 MB   |    Зарегистрирован:  1 год 1 месяц   |    Скачан:  2 раза

Полного источника не было: 3 дня

 
   
 
 
 

[Цитировать]

House of Cards Жанр: Score
Год издания: 2013-2014
Страна: USA
Битрейт аудио: lossless
Продолжительность: 03:35:15
Наличие сканов в содержимом раздачи: нет

2013 - House of Cards

Страна-производитель диска: USA
Издатель (лейбл): Varese Sarabande Records
Номер по каталогу: 3020671912
Аудиокодек: FLAC (*.flac)
Тип рипа: image+.cue
Продолжительность: 01:37:10
Источник (релизер): CD из личной коллекции

CD 1

Продолжительность: 00:58:00
Треклист:
01. Jeff Beal - House of Cards Main Title Theme [01:49]
02. Jeff Beal - One Bite At a Time [02:30]
03. Jeff Beal - I Know What I Have To Do [02:43]
04. Jeff Beal - Forward March [02:02]
05. Jeff Beal - Making History [05:34]
06. Jeff Beal - Zoe’s First Close-Up [02:32]
07. Jeff Beal - Peter and Christina [03:12]
08. Jeff Beal - Reverend Underwood’s Eulogy [02:34]
09. Jeff Beal - Someone We Own [02:06]
10. Jeff Beal - Melancholia [03:24]
11. Jeff Beal - Claire and Adam [03:04]
12. Jeff Beal - I’ve Known Everything [04:39]
13. Jeff Beal - Two Kinds of Pain [03:35]
14. Jeff Beal - Zoe Fired [02:04]
15. Jeff Beal - Coming Home [03:54]
16. Jeff Beal - Trapped [02:47]
17. Jeff Beal - Claire’s Fix [02:28]
18. Jeff Beal - Claire’s Dream [02:50]
19. Jeff Beal - Truth and Lies [04:05]

Отчёт EAC

Exact Audio Copy V1.0 beta 3 from 29. August 2011
Отчёт EAC об извлечении, выполненном 23. августа 2014, 16:27
Jeff Beal / House of Cards
Дисковод: ASUS BW-12B1ST Adapter: 3 ID: 0
Режим чтения : ДостоверностьИспользование точного потока : ДаОтключение кэша аудио : ДаИспользование указателей C2 : Нет
Коррекция смещения при чтении : 6Способность читать области Lead-in и Lead-out : НетЗаполнение пропущенных сэмплов тишиной : ДаУдаление блоков с тишиной в начале и конце : НетПри вычислениях CRC использовались нулевые сэмплы : ДаИнтерфейс : Встроенный Win32-интерфейс для Win NT/2000
Выходной формат : Внутренние WAV-операцииФормат сэмплов : 44.100 Гц; 16 бит; стерео
TOC извлечённого CD
Трек | Старт | Длительность | Начальный сектор | Конечный сектор --------------------------------------------------------------------- 1 | 0:00.00 | 1:49.64 | 0 | 8238 2 | 1:49.64 | 2:30.45 | 8239 | 19533 3 | 4:20.34 | 2:43.64 | 19534 | 31822 4 | 7:04.23 | 2:02.02 | 31823 | 40974 5 | 9:06.25 | 5:34.51 | 40975 | 66075 6 | 14:41.01 | 2:32.24 | 66076 | 77499 7 | 17:13.25 | 3:12.01 | 77500 | 91900 8 | 20:25.26 | 2:34.62 | 91901 | 103512 9 | 23:00.13 | 2:06.11 | 103513 | 112973 10 | 25:06.24 | 3:24.21 | 112974 | 128294 11 | 28:30.45 | 3:04.57 | 128295 | 142151 12 | 31:35.27 | 4:39.48 | 142152 | 163124 13 | 36:15.00 | 3:35.13 | 163125 | 179262 14 | 39:50.13 | 2:04.06 | 179263 | 188568 15 | 41:54.19 | 3:54.63 | 188569 | 206181 16 | 45:49.07 | 2:47.14 | 206182 | 218720 17 | 48:36.21 | 2:28.60 | 218721 | 229880 18 | 51:05.06 | 2:50.00 | 229881 | 242630 19 | 53:55.06 | 4:05.06 | 242631 | 261011
Характеристики диапазона извлечения и сообщения об ошибках
Выбранный диапазон
Имя файла D:\EAC\Jeff Beal - 2013 - House of Cards (Varese Sarabande Records - 3020671912)\CD 1\Jeff Beal - 2013 - House of Cards.wav
Пиковый уровень 98.9 % Скорость извлечения 7.6 X Качество диапазона 100.0 % CRC теста AD7EF83E CRC копии AD7EF83E Копирование... OK
Ошибок не произошло
AccurateRip: сводка
Трек 1 : извлечено точно (доверие 8) [FD27F13F] (AR v2)Трек 2 : извлечено точно (доверие 8) [D94506F9] (AR v2)Трек 3 : извлечено точно (доверие 8) [89135D9D] (AR v2)Трек 4 : извлечено точно (доверие 8) [1D07718D] (AR v2)Трек 5 : извлечено точно (доверие 8) [BEF44256] (AR v2)Трек 6 : извлечено точно (доверие 8) [A16C4294] (AR v2)Трек 7 : извлечено точно (доверие 8) [9D2A8BC2] (AR v2)Трек 8 : извлечено точно (доверие 8) [45B5796A] (AR v2)Трек 9 : извлечено точно (доверие 8) [0913657E] (AR v2)Трек 10 : извлечено точно (доверие 8) [2D7D96A4] (AR v2)Трек 11 : извлечено точно (доверие 8) [78E7FC26] (AR v2)Трек 12 : извлечено точно (доверие 8) [65B96C57] (AR v2)Трек 13 : извлечено точно (доверие 8) [50656BBD] (AR v2)Трек 14 : извлечено точно (доверие 8) [8BC8EB36] (AR v2)Трек 15 : извлечено точно (доверие 8) [AFA99AD6] (AR v2)Трек 16 : извлечено точно (доверие 8) [01D08974] (AR v2)Трек 17 : извлечено точно (доверие 8) [3010BA7A] (AR v2)Трек 18 : извлечено точно (доверие 8) [2FB2302D] (AR v2)Трек 19 : извлечено точно (доверие 8) [E5C8F4C5] (AR v2)
Все треки извлечены точно
Конец отчёта
==== Контрольная сумма отчёта 23FCA34BD616D049533CD1B049FC5FCCBAB5A462C4DBF361DAB8D95B6C38733B ====

CD 2

Продолжительность: 00:39:08
Треклист:
20. Jeff Beal - Grooming Russo To Run [04:44]
21. Jeff Beal - End It [02:30]
22. Jeff Beal - Power [04:20]
23. Jeff Beal - Frank Prays [02:08]
24. Jeff Beal - Peter Says Goodbye [02:35]
25. Jeff Beal - In a Lot of Pain [04:11]
26. Jeff Beal - The Set Up [04:59]
27. Jeff Beal - Chessboard Revealed [06:20]
28. Jeff Beal - Suspicion & Hubris [04:24]
29. Jeff Beal - Flowers For Claire [02:52]

Отчёт EAC

Exact Audio Copy V1.0 beta 3 from 29. August 2011
Отчёт EAC об извлечении, выполненном 23. августа 2014, 16:56
Jeff Beal / House of Cards
Дисковод: ASUS BW-12B1ST Adapter: 3 ID: 0
Режим чтения : ДостоверностьИспользование точного потока : ДаОтключение кэша аудио : ДаИспользование указателей C2 : Нет
Коррекция смещения при чтении : 6Способность читать области Lead-in и Lead-out : НетЗаполнение пропущенных сэмплов тишиной : ДаУдаление блоков с тишиной в начале и конце : НетПри вычислениях CRC использовались нулевые сэмплы : ДаИнтерфейс : Встроенный Win32-интерфейс для Win NT/2000
Выходной формат : Внутренние WAV-операцииФормат сэмплов : 44.100 Гц; 16 бит; стерео
TOC извлечённого CD
Трек | Старт | Длительность | Начальный сектор | Конечный сектор --------------------------------------------------------------------- 1 | 0:00.00 | 4:44.54 | 0 | 21353 2 | 4:44.54 | 2:30.14 | 21354 | 32617 3 | 7:14.68 | 4:20.28 | 32618 | 52145 4 | 11:35.21 | 2:08.55 | 52146 | 61800 5 | 13:44.01 | 2:35.25 | 61801 | 73450 6 | 16:19.26 | 4:11.26 | 73451 | 92301 7 | 20:30.52 | 4:59.68 | 92302 | 114794 8 | 25:30.45 | 6:20.32 | 114795 | 143326 9 | 31:51.02 | 4:24.28 | 143327 | 163154 10 | 36:15.30 | 2:52.61 | 163155 | 176115
Характеристики диапазона извлечения и сообщения об ошибках
Выбранный диапазон
Имя файла D:\EAC\Jeff Beal - 2013 - House of Cards (Varese Sarabande Records - 3020671912)\CD 2\Jeff Beal - 2013 - House of Cards.wav
Пиковый уровень 99.9 % Скорость извлечения 2.9 X Качество диапазона 99.9 % CRC теста 6C3DC5EB CRC копии 6C3DC5EB Копирование... OK
Ошибок не произошло
AccurateRip: сводка
Трек 1 точность не определена (достоверность 7) [1A8E0C71], AccurateRip вернул [830912A3] (AR v2)Трек 2 точность не определена (достоверность 7) [7BFDDEC5], AccurateRip вернул [AB1B3835] (AR v2)Трек 3 точность не определена (достоверность 7) [28F2CF33], AccurateRip вернул [8678852E] (AR v2)Трек 4 точность не определена (достоверность 7) [025501FD], AccurateRip вернул [2C0F2356] (AR v2)Трек 5 точность не определена (достоверность 7) [5E7934A5], AccurateRip вернул [EC531A16] (AR v2)Трек 6 точность не определена (достоверность 7) [726A6968], AccurateRip вернул [534D85B0] (AR v2)Трек 7 точность не определена (достоверность 7) [C975CC3E], AccurateRip вернул [BF1510FA] (AR v2)Трек 8 точность не определена (достоверность 7) [2F719627], AccurateRip вернул [543C1EC6] (AR v2)Трек 9 точность не определена (достоверность 7) [01DE5170], AccurateRip вернул [04D84D86] (AR v2)Трек 10 точность не определена (достоверность 7) [60B13E15], AccurateRip вернул [6F5417D0] (AR v2)
Ни один трек не прошёл проверки на точностьВ вашей базе может быть иной вариант штамповки диска
Конец отчёта
==== Контрольная сумма отчёта 02A01629A57ABD0A8E5F4D1F530D3F47157BDF3D335AD65456F173B99453A305 ====

2014 - House of Cards Season 2

Страна-производитель диска: USA
Издатель (лейбл): Varese Sarabande Records
Номер по каталогу: 3020672718
Аудиокодек: FLAC (*.flac)
Тип рипа: image+.cue
Продолжительность: 01:56:05
Источник (релизер): CD из личной коллекции

CD 1

Продолжительность: 01:06:51
Треклист:
01. Jeff Beal - Next In Line [01:46]
02. Jeff Beal - House Of Cards Main Title Season 2 [03:18]
03. Jeff Beal - The Ring [02:52]
04. Jeff Beal - Freddie's World [03:02]
05. Jeff Beal - Two Minutes [01:14]
06. Jeff Beal - Grief Demands An Answer [03:41]
07. Jeff Beal - Rock Creek [02:14]
08. Jeff Beal - Our Fortress [03:06]
09. Jeff Beal - Rachel On The Bus [02:52]
10. Jeff Beal - Toxic President [03:09]
11. Jeff Beal - She Fell [06:24]
12. Jeff Beal - Heronymous [03:14]
13. Jeff Beal - Two More Votes [01:34]
14. Jeff Beal - A Gift From Feng [04:29]
15. Jeff Beal - Claire's Secret [02:01]
16. Jeff Beal - Pretty Polly [02:27]
17. Jeff Beal - Easy As Pie [01:48]
18. Jeff Beal - Heat Wave [02:51]
19. Jeff Beal - I Hate Lying [02:52]
20. Jeff Beal - Lucas Cornered [02:13]
21. Jeff Beal - Covert Plans [01:43]
22. Jeff Beal - Rachel And Jacob [02:42]
23. Jeff Beal - Put It To Bed [01:36]
24. Jeff Beal - Your Respect [03:32]

Отчёт EAC

Exact Audio Copy V1.0 beta 3 from 29. August 2011
Отчёт EAC об извлечении, выполненном 24. августа 2014, 14:27
Jeff Beal / House of Cards Season 2
Дисковод: ASUS BW-12B1ST Adapter: 3 ID: 0
Режим чтения : ДостоверностьИспользование точного потока : ДаОтключение кэша аудио : ДаИспользование указателей C2 : Нет
Коррекция смещения при чтении : 6Способность читать области Lead-in и Lead-out : НетЗаполнение пропущенных сэмплов тишиной : ДаУдаление блоков с тишиной в начале и конце : НетПри вычислениях CRC использовались нулевые сэмплы : ДаИнтерфейс : Встроенный Win32-интерфейс для Win NT/2000
Выходной формат : Внутренние WAV-операцииФормат сэмплов : 44.100 Гц; 16 бит; стерео
TOC извлечённого CD
Трек | Старт | Длительность | Начальный сектор | Конечный сектор --------------------------------------------------------------------- 1 | 0:00.00 | 1:46.00 | 0 | 7949 2 | 1:46.00 | 3:18.43 | 7950 | 22842 3 | 5:04.43 | 2:52.26 | 22843 | 35768 4 | 7:56.69 | 3:02.15 | 35769 | 49433 5 | 10:59.09 | 1:14.68 | 49434 | 55051 6 | 12:14.02 | 3:41.36 | 55052 | 71662 7 | 15:55.38 | 2:14.23 | 71663 | 81735 8 | 18:09.61 | 3:06.06 | 81736 | 95691 9 | 21:15.67 | 2:52.31 | 95692 | 108622 10 | 24:08.23 | 3:09.67 | 108623 | 122864 11 | 27:18.15 | 6:24.69 | 122865 | 151733 12 | 33:43.09 | 3:14.52 | 151734 | 166335 13 | 36:57.61 | 1:34.38 | 166336 | 173423 14 | 38:32.24 | 4:29.36 | 173424 | 193634 15 | 43:01.60 | 2:01.41 | 193635 | 202750 16 | 45:03.26 | 2:27.66 | 202751 | 213841 17 | 47:31.17 | 1:48.32 | 213842 | 221973 18 | 49:19.49 | 2:51.27 | 221974 | 234825 19 | 52:11.01 | 2:52.04 | 234826 | 247729 20 | 55:03.05 | 2:13.15 | 247730 | 257719 21 | 57:16.20 | 1:43.56 | 257720 | 265500 22 | 59:00.01 | 2:42.53 | 265501 | 277703 23 | 61:42.54 | 1:36.61 | 277704 | 284964 24 | 63:19.40 | 3:32.24 | 284965 | 300888
Характеристики диапазона извлечения и сообщения об ошибках
Выбранный диапазон
Имя файла D:\EAC\Jeff Beal - 2014 - House of Cards Season 2 (Varese Sarabande Records - 3020672718)\CD 1\Jeff Beal - 2014 - House of Cards Season 2.wav
Пиковый уровень 98.7 % Скорость извлечения 9.5 X Качество диапазона 99.9 % CRC теста ADC60C61 CRC копии ADC60C61 Копирование... OK
Ошибок не произошло
AccurateRip: сводка
Трек 1 : извлечено точно (доверие 1) [C12041C7] (AR v2)Трек 2 : извлечено точно (доверие 1) [2731B03C] (AR v2)Трек 3 : извлечено точно (доверие 1) [03064E6A] (AR v2)Трек 4 : извлечено точно (доверие 1) [E4A68A96] (AR v2)Трек 5 : извлечено точно (доверие 1) [90D4A5CF] (AR v2)Трек 6 : извлечено точно (доверие 1) [C558EAB7] (AR v2)Трек 7 : извлечено точно (доверие 1) [A4DB2511] (AR v2)Трек 8 : извлечено точно (доверие 1) [3EF23440] (AR v2)Трек 9 : извлечено точно (доверие 1) [6F5D5122] (AR v2)Трек 10 : извлечено точно (доверие 1) [1E822021] (AR v2)Трек 11 : извлечено точно (доверие 1) [428FD05E] (AR v2)Трек 12 : извлечено точно (доверие 1) [5D09C93D] (AR v2)Трек 13 : извлечено точно (доверие 1) [C6AA2FE0] (AR v2)Трек 14 : извлечено точно (доверие 1) [05691337] (AR v2)Трек 15 : извлечено точно (доверие 1) [68816F45] (AR v2)Трек 16 : извлечено точно (доверие 1) [079F111F] (AR v2)Трек 17 : извлечено точно (доверие 1) [5A84F74F] (AR v2)Трек 18 : извлечено точно (доверие 1) [BC5FDF2E] (AR v2)Трек 19 : извлечено точно (доверие 1) [2EE2EF3D] (AR v2)Трек 20 : извлечено точно (доверие 1) [3E3071D3] (AR v2)Трек 21 : извлечено точно (доверие 1) [A26B577F] (AR v2)Трек 22 : извлечено точно (доверие 1) [EBE1C105] (AR v2)Трек 23 : извлечено точно (доверие 1) [51BB1CF4] (AR v2)Трек 24 : извлечено точно (доверие 1) [1AABD4F4] (AR v2)
Все треки извлечены точно
Конец отчёта
==== Контрольная сумма отчёта 77DEB591A5873EE984AEAFC4BFDB08E1460ECE2D26EB15A5A72156036463D5AE ====

CD 2

Продолжительность: 00:49:11
Треклист:
25. Jeff Beal - Married To The V.P. [01:31]
26. Jeff Beal - Moments Of Escape [03:17]
27. Jeff Beal - Tusk Drops A Bomb [05:19]
28. Jeff Beal - Same Mistake Twice [02:56]
29. Jeff Beal - To Be King [06:19]
30. Jeff Beal - Read To Me [02:52]
31. Jeff Beal - Jackie Crosses Claire [02:31]
32. Jeff Beal - Tusk Turns [03:04]
33. Jeff Beal - One Degree Of Separation [04:04]
34. Jeff Beal - What I Want [02:27]
35. Jeff Beal - Articles Of Impeachment [02:34]
36. Jeff Beal - Mr. President [08:00]
37. Jeff Beal - Distance Myself [04:11]

Отчёт EAC

Exact Audio Copy V1.0 beta 3 from 29. August 2011
Отчёт EAC об извлечении, выполненном 24. августа 2014, 15:04
Jeff Beal / House of Cards Season 2
Дисковод: ASUS BW-12B1ST Adapter: 3 ID: 0
Режим чтения : ДостоверностьИспользование точного потока : ДаОтключение кэша аудио : ДаИспользование указателей C2 : Нет
Коррекция смещения при чтении : 6Способность читать области Lead-in и Lead-out : НетЗаполнение пропущенных сэмплов тишиной : ДаУдаление блоков с тишиной в начале и конце : НетПри вычислениях CRC использовались нулевые сэмплы : ДаИнтерфейс : Встроенный Win32-интерфейс для Win NT/2000
Выходной формат : Внутренние WAV-операцииФормат сэмплов : 44.100 Гц; 16 бит; стерео
TOC извлечённого CD
Трек | Старт | Длительность | Начальный сектор | Конечный сектор --------------------------------------------------------------------- 1 | 0:00.00 | 1:31.55 | 0 | 6879 2 | 1:31.55 | 3:17.14 | 6880 | 21668 3 | 4:48.69 | 5:19.04 | 21669 | 45597 4 | 10:07.73 | 2:56.69 | 45598 | 58866 5 | 13:04.67 | 6:19.67 | 58867 | 87358 6 | 19:24.59 | 2:52.00 | 87359 | 100258 7 | 22:16.59 | 2:31.50 | 100259 | 111633 8 | 24:48.34 | 3:04.11 | 111634 | 125444 9 | 27:52.45 | 4:04.39 | 125445 | 143783 10 | 31:57.09 | 2:27.48 | 143784 | 154856 11 | 34:24.57 | 2:34.43 | 154857 | 166449 12 | 36:59.25 | 8:00.51 | 166450 | 202500 13 | 45:00.01 | 4:11.13 | 202501 | 221338
Характеристики диапазона извлечения и сообщения об ошибках
Выбранный диапазон
Имя файла D:\EAC\Jeff Beal - 2014 - House of Cards Season 2 (Varese Sarabande Records - 3020672718)\CD 2\Jeff Beal - 2014 - House of Cards Season 2.wav
Пиковый уровень 98.6 % Скорость извлечения 3.2 X Качество диапазона 100.0 % CRC теста 52063138 CRC копии 52063138 Копирование... OK
Ошибок не произошло
AccurateRip: сводка
Трек 1 : извлечено точно (доверие 1) [25BA8140] (AR v2)Трек 2 : извлечено точно (доверие 1) [ABBAEB1E] (AR v2)Трек 3 : извлечено точно (доверие 1) [C497C75F] (AR v2)Трек 4 : извлечено точно (доверие 1) [D223094E] (AR v2)Трек 5 : извлечено точно (доверие 1) [10BD04C4] (AR v2)Трек 6 : извлечено точно (доверие 1) [0DDD4776] (AR v2)Трек 7 : извлечено точно (доверие 1) [071929D7] (AR v2)Трек 8 : извлечено точно (доверие 1) [FB3902E0] (AR v2)Трек 9 : извлечено точно (доверие 1) [C8E2079B] (AR v2)Трек 10 : извлечено точно (доверие 1) [C3876283] (AR v2)Трек 11 : извлечено точно (доверие 1) [C66DB13D] (AR v2)Трек 12 : извлечено точно (доверие 1) [40604104] (AR v2)Трек 13 : извлечено точно (доверие 1) [6BC7E40F] (AR v2)
Все треки извлечены точно
Конец отчёта
==== Контрольная сумма отчёта 1776221835D6E1E8507B766BB5303D43AB28F25A8969B946286A503CBF62E9A2 ====
[teatrix.ru].t10447.torrent 
Торрент: Зарегистрирован [ 2015-11-01 20:51 ] · B62C56B6BBA6E02A29C00DDD9F5E3CDD2C3DCE0E

Скачать .torrent

Скачать

20 KB

Статус: проверено
Скачан: 2 раз
Размер: 939 MB
terms.php



Быстрый ответ

Имя:

      
Для отправки сообщений необходимо включить JavaScript
Показать сообщения:    

Текущее время: 09-Дек 12:44

Часовой пояс: UTC + 3


Вы можете начинать темы
Вы можете отвечать на сообщения
Вы не можете редактировать свои сообщения
Вы не можете удалять свои сообщения
Вы не можете голосовать в опросах
Вы не можете прикреплять файлы к сообщениям
Вы можете скачивать файлы