(Classical) Alexander Scriabin - Complete Piano Sonatas (Dmitri Alexeev) / Александр Скрябин - Полное собрание сонат для фортепиано (Дмитрий Алексеев) - 2012, FLAC (image+.cue) lossless


 

[Цитировать]

Alexander Scriabin / Александр Скрябин - Complete Etudes (Dmitri Alexeev)
Жанр: Classical
Год издания диска: 2012
Аудиокодек: FLAC
Тип рипа: image+.cue
Битрейт аудио: lossless
Продолжительность: 2 часа 23 минуты
Источник: собственный рип
Наличие сканов в содержимом раздачи: да
Треклист:

CD1

CD1 - 66:27Sonata No 1 in F minor, Op 6
01. Allegro con fuocoso
02. Crotchet =
03. Presto - Funebre
Sonata No 2 in G sharp minor, Op 19
04. Andante
05. Presto
Sonata No 3 in F sharp minor, Op 23
06. Drammatico
07. Allegretto
08. Andante
09. Presto con fuoco
Sonata No 4 in F sharp major, Op 30
10. Andante
11. Prestissimo volando

CD2

CD2 - 77:5801. Sonata No 5, Op 53
02. Sonata No 6, Op 62
03. Sonata No 7 'Messe blanche' Op 64
04. Sonata No 8, Op 66
05. Sonata No 9 'Messe noire', Op 68
06. Sonata No 10, Op 70
Исполнители:
Дмитрий Алексеев

Лог создания рипа

Лог создания рипа

CD1 - 66:27

Exact Audio Copy V1.0 beta 3 from 29. August 2011
EAC extraction logfile from 9. September 2014, 18:46
Dmitri Alexeev / Scriabin. Complete Piano Sonatas CD1
Used drive : Optiarc DVD RW AD-7260S Adapter: 2 ID: 0
Read mode : Secure
Utilize accurate stream : Yes
Defeat audio cache : Yes
Make use of C2 pointers : No
Read offset correction : 48
Overread into Lead-In and Lead-Out : No
Fill up missing offset samples with silence : Yes
Delete leading and trailing silent blocks : No
Null samples used in CRC calculations : Yes
Used interface : Native Win32 interface for Win NT & 2000
Used output format : User Defined Encoder
Selected bitrate : 1024 kBit/s
Quality : High
Add ID3 tag : No
Command line compressor : C:\Program Files (x86)\Exact Audio Copy\FLAC\FLAC.EXE
Additional command line options : -6 -V -T "ARTIST=%artist%" -T "TITLE=%title%" -T "ALBUM=%albumtitle%" -T "DATE=%year%" -T "TRACKNUMBER=%tracknr%" -T "GENRE=%genre%" -T "COMMENT=%comment%" -T "BAND=%albuminterpret%" -T "ALBUMARTIST=%albuminterpret%" -T "COMPOSER=%composer%" %haslyrics%--tag-from-file=LYRICS="%lyricsfile%"%haslyrics% -T "DISCNUMBER=%cdnumber%" -T "TOTALDISCS=%totalcds%" -T "TOTALTRACKS=%numtracks%" %hascover%--picture="%coverfile%"%hascover% %source% -o %dest%
TOC of the extracted CD
Track | Start | Length | Start sector | End sector
---------------------------------------------------------
1 | 0:00.00 | 12:00.58 | 0 | 54057
2 | 12:00.58 | 5:13.17 | 54058 | 77549
3 | 17:14.00 | 9:15.35 | 77550 | 119209
4 | 26:29.35 | 7:50.68 | 119210 | 154527
5 | 34:20.28 | 4:11.30 | 154528 | 173382
6 | 38:31.58 | 6:36.31 | 173383 | 203113
7 | 45:08.14 | 2:40.69 | 203114 | 215182
8 | 47:49.08 | 4:24.12 | 215183 | 234994
9 | 52:13.20 | 6:16.70 | 234995 | 263264
10 | 58:30.15 | 2:52.39 | 263265 | 276203
11 | 61:22.54 | 5:05.15 | 276204 | 299093
Range status and errors
Selected range
Filename D:\Scriabin. Complete Piano Sonatas CD1. Dmitri Alexeev.wav
Peak level 94.3 %
Extraction speed 4.1 X
Range quality 100.0 %
Test CRC 96FBA1F4
Copy CRC 96FBA1F4
Copy OK
No errors occurred
AccurateRip summary
Track 1 accurately ripped (confidence 1) [1852272A] (AR v2)
Track 2 accurately ripped (confidence 1) [AB4139DB] (AR v2)
Track 3 accurately ripped (confidence 1) [03DD137F] (AR v2)
Track 4 accurately ripped (confidence 1) [339EC831] (AR v2)
Track 5 accurately ripped (confidence 1) [51BA61C5] (AR v2)
Track 6 accurately ripped (confidence 1) [39067002] (AR v2)
Track 7 accurately ripped (confidence 1) [CF110DAD] (AR v2)
Track 8 accurately ripped (confidence 1) [23B4318A] (AR v2)
Track 9 accurately ripped (confidence 1) [8C287239] (AR v2)
Track 10 accurately ripped (confidence 1) [D5205571] (AR v2)
Track 11 accurately ripped (confidence 1) [0E06CE9A] (AR v2)
All tracks accurately ripped
End of status report
---- CUETools DB Plugin V2.1.3
[CTDB TOCID: ._LRHYt6sxOTFxnAWOjzwixRYMA-] found, Submit result: ._LRHYt6sxOTFxnAWOjzwixRYMA- has been confirmed
[785fd5dd] (4/4) Accurately ripped

CD2 - 77:58

Exact Audio Copy V1.0 beta 3 from 29. August 2011
EAC extraction logfile from 9. September 2014, 19:43
Dmitri Alexeev / Scriabin. Complete Piano Sonatas CD2
Used drive : Optiarc DVD RW AD-7260S Adapter: 2 ID: 0
Read mode : Secure
Utilize accurate stream : Yes
Defeat audio cache : Yes
Make use of C2 pointers : No
Read offset correction : 48
Overread into Lead-In and Lead-Out : No
Fill up missing offset samples with silence : Yes
Delete leading and trailing silent blocks : No
Null samples used in CRC calculations : Yes
Used interface : Native Win32 interface for Win NT & 2000
Used output format : User Defined Encoder
Selected bitrate : 1024 kBit/s
Quality : High
Add ID3 tag : No
Command line compressor : C:\Program Files (x86)\Exact Audio Copy\FLAC\FLAC.EXE
Additional command line options : -6 -V -T "ARTIST=%artist%" -T "TITLE=%title%" -T "ALBUM=%albumtitle%" -T "DATE=%year%" -T "TRACKNUMBER=%tracknr%" -T "GENRE=%genre%" -T "COMMENT=%comment%" -T "BAND=%albuminterpret%" -T "ALBUMARTIST=%albuminterpret%" -T "COMPOSER=%composer%" %haslyrics%--tag-from-file=LYRICS="%lyricsfile%"%haslyrics% -T "DISCNUMBER=%cdnumber%" -T "TOTALDISCS=%totalcds%" -T "TOTALTRACKS=%numtracks%" %hascover%--picture="%coverfile%"%hascover% %source% -o %dest%
TOC of the extracted CD
Track | Start | Length | Start sector | End sector
---------------------------------------------------------
1 | 0:00.00 | 13:16.65 | 0 | 59764
2 | 13:16.65 | 13:48.06 | 59765 | 121870
3 | 27:04.71 | 12:50.68 | 121871 | 179688
4 | 39:55.64 | 15:14.38 | 179689 | 248276
5 | 55:10.27 | 9:41.15 | 248277 | 291866
6 | 64:51.42 | 13:06.33 | 291867 | 350849
Range status and errors
Selected range
Filename D:\Scriabin. Complete Piano Sonatas CD2. Dmitri Alexeev.wav
Peak level 100.0 %
Extraction speed 4.5 X
Range quality 100.0 %
Test CRC A7A664A7
Copy CRC A7A664A7
Copy OK
No errors occurred
AccurateRip summary
Track 1 accurately ripped (confidence 1) [2C459820] (AR v2)
Track 2 accurately ripped (confidence 1) [E83B7D3C] (AR v2)
Track 3 accurately ripped (confidence 1) [FB26743E] (AR v2)
Track 4 accurately ripped (confidence 1) [F1D9520F] (AR v2)
Track 5 accurately ripped (confidence 1) [FDB3BB7A] (AR v2)
Track 6 accurately ripped (confidence 1) [603DD9CA] (AR v2)
All tracks accurately ripped
End of status report
---- CUETools DB Plugin V2.1.3
[CTDB TOCID: iD7qBA8fmgEXd9F15ZzcOtAgksk-] found, Submit result: iD7qBA8fmgEXd9F15ZzcOtAgksk- has been confirmed
[29e7c7e9] (4/4) Accurately ripped

Содержание индексной карты (.CUE)

CD1

REM GENRE Classical
REM DATE 2012
REM DISCID 820F930B
REM COMMENT "ExactAudioCopy v1.0b3"
PERFORMER "Dmitri Alexeev"
TITLE "Scriabin. Complete Piano Sonatas CD1"
FILE "Scriabin. Complete Piano Sonatas CD1. Dmitri Alexeev.flac" WAVE
TRACK 01 AUDIO
TITLE "Sonate Nr. 1 f-moll op. 6 - I. Allegro con fuoco"
PERFORMER "Dmitri Alexeev"
INDEX 01 00:00:00
TRACK 02 AUDIO
TITLE "- II. Viertel = 40 (Lento)"
PERFORMER "Dmitri Alexeev"
INDEX 00 11:57:72
INDEX 01 12:00:58
TRACK 03 AUDIO
TITLE "- III. Presto - Funebre"
PERFORMER "Dmitri Alexeev"
INDEX 01 17:14:00
TRACK 04 AUDIO
TITLE "Sonate Nr. 2 gis-moll op. 19 - I. Andante"
PERFORMER "Dmitri Alexeev"
INDEX 00 26:26:43
INDEX 01 26:29:35
TRACK 05 AUDIO
TITLE "- II. Presto"
PERFORMER "Dmitri Alexeev"
INDEX 01 34:20:28
TRACK 06 AUDIO
TITLE "Sonate Nr. 3 fis-moll op. 23 - I. Drammatico"
PERFORMER "Dmitri Alexeev"
INDEX 00 38:28:67
INDEX 01 38:31:58
TRACK 07 AUDIO
TITLE "- II. Allegretto"
PERFORMER "Dmitri Alexeev"
INDEX 01 45:08:14
TRACK 08 AUDIO
TITLE "- III. Andante"
PERFORMER "Dmitri Alexeev"
INDEX 01 47:49:08
TRACK 09 AUDIO
TITLE "- IV. Presto con fuoco"
PERFORMER "Dmitri Alexeev"
INDEX 01 52:13:20
TRACK 10 AUDIO
TITLE "Sonate Nr. 4 Fis-dur op. 30 - I. Andante"
PERFORMER "Dmitri Alexeev"
INDEX 00 58:27:22
INDEX 01 58:30:15
TRACK 11 AUDIO
TITLE "- II. Prestissimo volando"
PERFORMER "Dmitri Alexeev"
INDEX 01 61:22:54

CD2

REM GENRE Classical
REM DATE 2012
REM DISCID 5E124606
REM COMMENT "ExactAudioCopy v1.0b3"
PERFORMER "Dmitri Alexeev"
TITLE "Scriabin. Complete Piano Sonatas CD2"
FILE "Scriabin. Complete Piano Sonatas CD2. Dmitri Alexeev.flac" WAVE
TRACK 01 AUDIO
TITLE "Sonata No.5, Op.53"
PERFORMER "Scriabin, Alexander"
INDEX 01 00:00:00
TRACK 02 AUDIO
TITLE "Sonata No.6, Op.62"
PERFORMER "Scriabin, Alexander"
INDEX 00 13:14:05
INDEX 01 13:16:65
TRACK 03 AUDIO
TITLE "Sonata No.7, Op.64 'White Mass'"
PERFORMER "Scriabin, Alexander"
INDEX 00 27:02:05
INDEX 01 27:04:71
TRACK 04 AUDIO
TITLE "Sonata No.8, Op.66"
PERFORMER "Scriabin, Alexander"
INDEX 00 39:53:07
INDEX 01 39:55:64
TRACK 05 AUDIO
TITLE "Sonata No.9, Op.68 'Black Mass'"
PERFORMER "Scriabin, Alexander"
INDEX 00 55:07:47
INDEX 01 55:10:27
TRACK 06 AUDIO
TITLE "Sonata No.10, Op.70"
PERFORMER "Scriabin, Alexander"
INDEX 00 64:48:62
INDEX 01 64:51:42
Александр Скрябин - Полное собрание этюдов, частицы опуса 2, квази-вальс опус 47, прелюдии опуса 22, поэмы опуса 69 (Дмитрий Алексеев / Dmitri Alexeev)



Показать сообщения:    

Текущее время: 06-Дек 15:14

Часовой пояс: UTC + 3


Вы не можете начинать темы
Вы не можете отвечать на сообщения
Вы не можете редактировать свои сообщения
Вы не можете удалять свои сообщения
Вы не можете голосовать в опросах
Вы не можете прикреплять файлы к сообщениям
Вы не можете скачивать файлы