Нападение прошлого на всё остальное время / Der Angriff der Gegenwart auf die ubrige Zeit (Александр Клюге / Alexander Kluge) [1985, Германия (ФРГ), драма, DVDRip] DVO (СВ-Дубль) + Sub Rus + Original Ger


Статистика раздачи [Обновить пиров]
Размер:  1.46 GB   |    Зарегистрирован:  1 год 1 месяц   |    Скачан:  0 раз

Полного источника не было: 2 месяца 9 дней

Личеров:  2  [  0 KB/s  ]   Подробная статистика пиров
 
   
 
 
 

[Цитировать]

Нападение прошлого на всё остальное время / Der Angriff der Gegenwart auf die übrige Zeit Страна: Германия (ФРГ)
Жанр: драма
Год выпуска: 1985
Продолжительность: 01:46:06
Перевод: Профессиональный (двухголосый закадровый) «СВ-Дубль» по заказу ГТРК "Культура"
Cубтитры: русские (на непереведенный фрагмент 01:24 - 01:26)
Оригинальная аудиодорожка: немецкая
Режиссер: Александр Клюге / Alexander Kluge
В ролях: Ютта Хоффманн, Армин Мюллер-Шталь, Ганс-Михаэль Реберг, Петер Рогиш, Розель Цех, Мария Шлатинару, Гюнтер Рич, Пьеро Висконти, Эдгар М. Бёльке, Хеннинг Берк.
Описание: Философское киноэссе. В фильме несколько параллельных линий: история женщины-врача, потерявшей работу; рассказ о девочке, оставшейся без родителей; о профессоре, размышляющем о скоротечности времени. Но основная линия — это история режиссера, который начал слепнуть, снимая очередной фильм.


Качество видео: DVDRip
Формат видео: AVI
Видео: 656x512 (1.28:1), 25 fps, XviD build 50 ~1694 kbps avg, 0.20 bit/pixel
Аудио 1: 48 kHz, MPEG Layer 3, 2 ch, ~128.00 kbps avg - Rus
Аудио 2: 48 kHz, MPEG Layer 3, 2 ch, ~128.00 kbps avg - Ger
Формат субтитров: softsub (SRT)

MediaInfo

General
Complete name : D:\Public\Der.Angriff.der.Gegenwart.auf.die.ubrige.Zeit.[1985].DVDrip.XviD.(rus-ger)\Der.Angriff.der.Gegenwart.auf.die.ubrige.Zeit.[1985].DVDrip.XviD.(rus-ger).avi
Format : AVI
Format/Info : Audio Video Interleave
File size : 1.46 GiB
Duration : 1h 46mn
Overall bit rate : 1 966 Kbps
Writing application : VirtualDubMod 1.5.10.2 (build 2542/release)
Writing library : VirtualDubMod build 2542/release
Video
ID : 0
Format : MPEG-4 Visual
Format profile : Advanced Simple@L5
Format settings, BVOP : 1
Format settings, QPel : No
Format settings, GMC : No warppoints
Format settings, Matrix : Default (MPEG)
Codec ID : XVID
Codec ID/Hint : XviD
Duration : 1h 46mn
Bit rate : 1 696 Kbps
Width : 656 pixels
Height : 512 pixels
Display aspect ratio : 1.281
Frame rate : 25.000 fps
Color space : YUV
Chroma subsampling : 4:2:0
Bit depth : 8 bits
Scan type : Progressive
Compression mode : Lossy
Bits/(Pixel*Frame) : 0.202
Stream size : 1.26 GiB (86%)
Writing library : XviD 1.2.1 (UTC 2008-12-04)
Audio #1
ID : 1
Format : MPEG Audio
Format version : Version 1
Format profile : Layer 3
Mode : Joint stereo
Mode extension : MS Stereo
Codec ID : 55
Codec ID/Hint : MP3
Duration : 1h 46mn
Bit rate mode : Constant
Bit rate : 128 Kbps
Channel(s) : 2 channels
Sampling rate : 48.0 KHz
Compression mode : Lossy
Stream size : 97.1 MiB (7%)
Alignment : Aligned on interleaves
Interleave, duration : 40 ms (1.00 video frame)
Interleave, preload duration : 504 ms
Title : Rus
Writing library : LAME3.90.3
Audio #2
ID : 2
Format : MPEG Audio
Format version : Version 1
Format profile : Layer 3
Mode : Joint stereo
Mode extension : MS Stereo
Codec ID : 55
Codec ID/Hint : MP3
Duration : 1h 46mn
Bit rate mode : Constant
Bit rate : 128 Kbps
Channel(s) : 2 channels
Sampling rate : 48.0 KHz
Compression mode : Lossy
Stream size : 97.1 MiB (7%)
Alignment : Aligned on interleaves
Interleave, duration : 40 ms (1.00 video frame)
Interleave, preload duration : 504 ms
Title : Ger
Writing library : LAME3.90.3

Скриншот c названием фильма

Скриншоты

[teatrix.ru].t10527.torrent 
Торрент: Зарегистрирован [ 2015-11-02 18:16 ] · C8912065772EC33DF09CE71909ADAEEC2B20AAE3

Скачать .torrent

Скачать

15 KB

Статус: проверено
Скачан: 0 раз
Размер: 1.46 GB
terms.php



Быстрый ответ

Имя:

      
Для отправки сообщений необходимо включить JavaScript
Показать сообщения:    

Текущее время: 11-Дек 03:21

Часовой пояс: UTC + 3


Вы можете начинать темы
Вы можете отвечать на сообщения
Вы не можете редактировать свои сообщения
Вы не можете удалять свои сообщения
Вы не можете голосовать в опросах
Вы не можете прикреплять файлы к сообщениям
Вы можете скачивать файлы