(Classical) Sa Chen - Сергей Рахманинов и Едвард Григ фортепианные концерты / Sa Chen - Sergei Rachmaninov & Edvard Grieg - 2011, FLAC (tracks) lossless


 

[Цитировать]

Sa Chen - Сергей Рахманинов и Едвард Григ - фортепианные концерты / Sa Chen - Sergei Rachmaninov & Edvard Grieg
Жанр: Classical
Страна-производитель диска: Netherlands
Год издания диска: 2011
Издатель (лейбл): Pentatone
Номер по каталогу: PTC 5186 444
Дата записи: 2011
Аудиокодек: FLAC
Тип рипа: tracks
Битрейт аудио: lossless
Продолжительность: 1:06:48
Источник: скачано с
сайт-источник/ник/другое: yun.baidu.com "cheman"
Наличие сканов в содержимом раздачи: нет
Треклист:
01-Sergei Rachmaninov - Piano Concerto No.2 in C minor, Op.18 - Moderato
02-Sergei Rachmaninov - Piano Concerto No.2 in C minor, Op.18 - Adagio sostenuto
03-Sergei Rachmaninov - Piano Concerto No.2 in C minor, Op.18 - Allegro scherzando
04-Edvard Grieg - Piano Concerto in A minor, Op.16 - Allegro molto moderato
05-Edvard Grieg - Piano Concerto in A minor, Op.16 - Adagio
06-Edvard Grieg - Piano Concerto in A minor, Op.16 - Allegro moderato molto e marcato
Исполнители:
Sa Chen
Orquestra Gulbenkian conducted by Lawrence Foster

foobar2000 1.3.8 / Dynamic Range Meter 1.1.1

foobar2000 1.3.8 / Dynamic Range Meter 1.1.1log date: 2015-11-01 19:01:18
--------------------------------------------------------------------------------Analyzed: Sa Chen / Sa Chen - Rachmaninov & Grieg Piano Concertos--------------------------------------------------------------------------------
DR Peak RMS Duration Track--------------------------------------------------------------------------------DR15 0.00 dB -21.19 dB 11:25 01-Sergei Rachmaninov - Piano Concerto No.2 in C minor, Op.18 - ModeratoDR16 0.00 dB -25.47 dB 12:04 02-Sergei Rachmaninov - Piano Concerto No.2 in C minor, Op.18 - Adagio sostenutoDR15 0.00 dB -20.59 dB 12:01 03-Sergei Rachmaninov - Piano Concerto No.2 in C minor, Op.18 - Allegro scherzandoDR16 -0.02 dB -22.95 dB 13:52 04-Edvard Grieg - Piano Concerto in A minor, Op.16 - Allegro molto moderatoDR14 -7.63 dB -27.37 dB 6:35 05-Edvard Grieg - Piano Concerto in A minor, Op.16 - AdagioDR13 0.00 dB -19.60 dB 10:51 06-Edvard Grieg - Piano Concerto in A minor, Op.16 - Allegro moderato molto e marcato--------------------------------------------------------------------------------
Number of tracks: 6Official DR value: DR15
Samplerate: 44100 HzChannels: 2Bits per sample: 16Bitrate: 562 kbpsCodec: FLAC================================================================================



Показать сообщения:    

Текущее время: 11-Дек 07:12

Часовой пояс: UTC + 3


Вы не можете начинать темы
Вы не можете отвечать на сообщения
Вы не можете редактировать свои сообщения
Вы не можете удалять свои сообщения
Вы не можете голосовать в опросах
Вы не можете прикреплять файлы к сообщениям
Вы не можете скачивать файлы