(Classical) Toshio Hosokawa - Orchestral Works • 1: Moment of Blossoming; Lotus under the moonlight; Chant - Stefan Dohr, Momo Kodama, Anssi Karttunen, Royal Scottish National Orchestra, Jun Märkl (Markl) - 2014, FLAC (image+.cue) lossless


 

[Цитировать]

Toshio Hosokawa - Orchestral Works • 1: Moment of Blossoming; Lotus under the moonlight; Chant - Stefan Dohr, Momo Kodama, Anssi Karttunen, Royal Scottish National Orchestra, Jun Märkl
Жанр: Classical
Год издания диска: 2014
Издатель (лейбл): Naxos
Номер по каталогу: 8.573239
Дата записи: 2013
Аудиокодек: FLAC
Тип рипа: image+.cue
Битрейт аудио: lossless
Продолжительность: 59:25
Источник: собственный рип
Наличие сканов в содержимом раздачи: да
Треклист:
Toshio Hosokawa (b.1955)
[1] Horn Concerto ‘Moment of Blossoming’ (2010)
[2] Lotus under the moonlight (hommage à Mozart) – Piano Concerto (2006)
[3] Chant (2009)
WORLD PREMIÈRE RECORDINGS
Исполнители:
Stefan Dohr french horn ([1])
Momo Kodama piano ([2])
Anssi Karttunen cello ([3])
Royal Scottish National Orchestra
Jun Märkl

Лог создания рипа

Exact Audio Copy V1.1 from 23. June 2015
EAC extraction logfile from 29. October 2015, 2:32
Royal Scottish National Orchestra, Jun Märkl / Hosokawa - Orchestral Works 1
Used drive : HL-DT-STDVDRAM GU70N Adapter: 1 ID: 0
Read mode : SecureUtilize accurate stream : YesDefeat audio cache : YesMake use of C2 pointers : No
Read offset correction : 48Overread into Lead-In and Lead-Out : NoFill up missing offset samples with silence : YesDelete leading and trailing silent blocks : NoNull samples used in CRC calculations : YesUsed interface : Native Win32 interface for Win NT & 2000
Used output format : User Defined EncoderSelected bitrate : 128 kBit/sQuality : HighAdd ID3 tag : NoCommand line compressor : C:\Program Files (x86)\Exact Audio Copy\Flac\flac.exeAdditional command line options : -V -8 -T "Date=%year%" -T "Genre=%genre%" %source%
TOC of the extracted CD
Track | Start | Length | Start sector | End sector --------------------------------------------------------- 1 | 0:00.00 | 19:37.70 | 0 | 88344 2 | 19:37.70 | 20:48.66 | 88345 | 182010 3 | 40:26.61 | 18:56.32 | 182011 | 267242
Range status and errors
Selected range
Filename C:\temp\Naxos_8.573239 - Hosokawa - Orchestral Works 1\Hosokawa - Orchestral Works 1.wav
Peak level 98.8 % Extraction speed 5.1 X Range quality 100.0 % Test CRC 8E488493 Copy CRC 8E488493 Copy OK
No errors occurred
AccurateRip summary
Track 1 accurately ripped (confidence 4) [A0C7C391] (AR v2)Track 2 accurately ripped (confidence 3) [6E9035D7] (AR v2)Track 3 accurately ripped (confidence 3) [6EDF91AE] (AR v2)
All tracks accurately ripped
End of status report
==== Log checksum EEF7177246E535FAB5DADEFEA1F9D31029C3236AF60AE091E66253CCDE6CD3E6 ====



Показать сообщения:    

Текущее время: 04-Дек 11:10

Часовой пояс: UTC + 3


Вы не можете начинать темы
Вы не можете отвечать на сообщения
Вы не можете редактировать свои сообщения
Вы не можете удалять свои сообщения
Вы не можете голосовать в опросах
Вы не можете прикреплять файлы к сообщениям
Вы не можете скачивать файлы