(Orchestral) Anton Bruckner - Symphonien Nrn.4 und 7 (Sinfonieorchester Basel - Mario Venzago) - 2011, FLAC (image+.cue) lossless


 

[Цитировать]

Anton Bruckner
Symphonien 4 & 7
Sinfonieorchester Basel
Mario Venzago-
-
- Жанр: Orchestral
Страна-производитель диска: Germany
Год издания диска: 2011
Издатель (лейбл): CPO
Дата записи: 23-25.08.2010
Аудиокодек: FLAC
Тип рипа: image+.cue
Битрейт аудио: lossless
Продолжительность: 61'13'' | 64'19''
Источник: собственный рип
Наличие сканов в содержимом раздачи: да
Треклист:

CD1

[01] Symphonie Nr.4: I. Bewegt, doch nicht schnell
[02] II. Andante, quasi Allegretto
[03] III. Scherzo. Bewegt - Trio. Nicht zu schnell
[04] IV. Finale. Bewegt, doch nicht schnell

Лог создания рипа

Exact Audio Copy V1.0 beta 4 from 7. December 2014
EAC extraction logfile from 9. August 2015, 13:47
Sinfonieorchester Basel - Mario Venzago / Bruckner 4
Used drive : PHILIPS PCRW804 Adapter: 1 ID: 1
Read mode : SecureUtilize accurate stream : YesDefeat audio cache : YesMake use of C2 pointers : No
Read offset correction : -436Overread into Lead-In and Lead-Out : NoFill up missing offset samples with silence : YesDelete leading and trailing silent blocks : NoNull samples used in CRC calculations : YesUsed interface : Native Win32 interface for Win NT & 2000
Used output format : User Defined EncoderSelected bitrate : 1024 kBit/sQuality : HighAdd ID3 tag : NoCommand line compressor : C:\Program Files (x86)\FLAC\flac.exeAdditional command line options : -T "COMMENT=rip by el coronel" -8 -V %source%
TOC of the extracted CD
Track | Start | Length | Start sector | End sector --------------------------------------------------------- 1 | 0:00.00 | 18:09.27 | 0 | 81701 2 | 18:09.27 | 13:43.04 | 81702 | 143430 3 | 31:52.31 | 10:33.10 | 143431 | 190915 4 | 42:25.41 | 18:47.51 | 190916 | 275491
Range status and errors
Selected range
Filename F:\Music\Bruckner 0-9 Venzago\Bruckner 4 and 7\CD1.wav
Peak level 100.0 % Extraction speed 2.1 X Range quality 99.9 % Test CRC 658533F6 Copy CRC 658533F6 Copy OK
No errors occurred
AccurateRip summary
Track 1 accurately ripped (confidence 4) [FAB49127] (AR v2)Track 2 accurately ripped (confidence 4) [4377BA7A] (AR v2)Track 3 accurately ripped (confidence 4) [166D54F7] (AR v2)Track 4 accurately ripped (confidence 4) [50303940] (AR v2)
All tracks accurately ripped
End of status report
---- CUETools DB Plugin V2.1.4
[CTDB TOCID: hT1WwQ4GvarB0JKL0Rl3IrYbz7k-] foundSubmit result: hT1WwQ4GvarB0JKL0Rl3IrYbz7k- has been confirmedTrack | CTDB Status 1 | (1/1) Accurately ripped 2 | (1/1) Accurately ripped 3 | (1/1) Accurately ripped 4 | (1/1) Accurately ripped
==== Log checksum ACEF691810565ABECB2D9BC125657663D88F0F52BEDADFF4E79CA3456DA8C151 ====

Содержание индексной карты (.CUE)

REM GENRE ClassicalREM DATE 2011REM DISCID 2E0E5904REM COMMENT ExactAudioCopy v1.0b4PERFORMER "Sinfonieorchester Basel - Mario Venzago"TITLE "Bruckner 4"FILE "CD1.flac" WAVE TRACK 01 AUDIO TITLE "Symphonie Nr.4: I. Bewegt, doch nicht schnell" ISRC DEB201061501 INDEX 01 00:00:00 TRACK 02 AUDIO TITLE "II. Andante, quasi Allegretto" ISRC DEB201061501 INDEX 01 18:09:27 TRACK 03 AUDIO TITLE "III. Scherzo. Bewegt - Trio. Nicht zu schnell" ISRC DEB201061502 INDEX 01 31:52:31 TRACK 04 AUDIO TITLE "IV. Finale. Bewegt, doch nicht schnell" ISRC DEB201061503 INDEX 01 42:25:41

CD2

[01] Symphonie Nr.7: I. Allegro moderato
[02] II. Adagio. Sehr feierlich und sehr langsam
[03] III. Scherzo. Sehr schnell - Trio. Etwas langsamer
[04] IV. Finale. Bewegt, doch nicht schnell

Лог создания рипа

Exact Audio Copy V1.0 beta 4 from 7. December 2014
EAC extraction logfile from 9. August 2015, 15:39
Sinfonieorchester Basel - Mario Venzago / Bruckner 7
Used drive : PHILIPS PCRW804 Adapter: 1 ID: 1
Read mode : SecureUtilize accurate stream : YesDefeat audio cache : YesMake use of C2 pointers : No
Read offset correction : -436Overread into Lead-In and Lead-Out : NoFill up missing offset samples with silence : YesDelete leading and trailing silent blocks : NoNull samples used in CRC calculations : YesUsed interface : Native Win32 interface for Win NT & 2000
Used output format : User Defined EncoderSelected bitrate : 1024 kBit/sQuality : HighAdd ID3 tag : NoCommand line compressor : C:\Program Files (x86)\FLAC\flac.exeAdditional command line options : -T "COMMENT=rip by el coronel" -8 -V %source%
TOC of the extracted CD
Track | Start | Length | Start sector | End sector --------------------------------------------------------- 1 | 0:00.00 | 20:20.30 | 0 | 91529 2 | 20:20.30 | 21:04.06 | 91530 | 186335 3 | 41:24.36 | 9:41.42 | 186336 | 229952 4 | 51:06.03 | 13:13.29 | 229953 | 289456
Range status and errors
Selected range
Filename F:\Music\Bruckner 0-9 Venzago\Bruckner 4 and 7\CD2.wav
Peak level 98.0 % Extraction speed 2.1 X Range quality 100.0 % Test CRC 7004754D Copy CRC 7004754D Copy OK
No errors occurred
AccurateRip summary
Track 1 accurately ripped (confidence 4) [FA8EC667] (AR v2)Track 2 accurately ripped (confidence 4) [BCBEB9D9] (AR v2)Track 3 accurately ripped (confidence 4) [471DF5D0] (AR v2)Track 4 accurately ripped (confidence 4) [766C0EC8] (AR v2)
All tracks accurately ripped
End of status report
---- CUETools DB Plugin V2.1.4
[CTDB TOCID: iEqn2SlEaiuaeh2Yu4eBmqDfxj4-] disk not present in databaseSubmit result: iEqn2SlEaiuaeh2Yu4eBmqDfxj4- has been uploaded
==== Log checksum EDC6CC61B1887D1D055757032051604275A3D0D32FEA40695677B75D88E70BFD ====

Содержание индексной карты (.CUE)

REM GENRE ClassicalREM DATE 2011REM DISCID 2E0F1304REM COMMENT ExactAudioCopy v1.0b4CATALOG 0761203761524PERFORMER "Sinfonieorchester Basel - Mario Venzago"TITLE "Bruckner 7"FILE "CD2.flac" WAVE TRACK 01 AUDIO TITLE "Symphonie Nr.7: I. Allegro moderato" ISRC DEB201061505 INDEX 01 00:00:00 TRACK 02 AUDIO TITLE "II. Adagio. Sehr feierlich und sehr langsam" ISRC DEB201061505 INDEX 01 20:20:30 TRACK 03 AUDIO TITLE "III. Scherzo. Sehr schnell - Trio. Etwas langsamer" ISRC DEB201061506 INDEX 01 41:24:36 TRACK 04 AUDIO TITLE "IV. Finale. Bewegt, doch nicht schnell" ISRC DEB201061508 INDEX 01 51:06:03
Исполнители:
Sinfonieorchester Basel - Mario Venzago



Показать сообщения:    

Текущее время: 04-Дек 19:22

Часовой пояс: UTC + 3


Вы не можете начинать темы
Вы не можете отвечать на сообщения
Вы не можете редактировать свои сообщения
Вы не можете удалять свои сообщения
Вы не можете голосовать в опросах
Вы не можете прикреплять файлы к сообщениям
Вы не можете скачивать файлы