(Opera) Camille Saint-Saens - Samson et Dalila / Камиль Сен-Санс - Самсон и Далила (Georges Pretre; Jon Vickers, Rita Gorr, Ernest Blanc), 1962 - Studio recording / APE (image+.cue), lossless


 

[Цитировать]

Camille Saint-Saens - Samson et Dalila / Камиль Сен-Санс - Самсон и Далила (Georges Prêtre; Jon Vickers, Rita Gorr, Ernest Blanc)
Жанр: Opera
Страна-производитель диска: США
Год издания диска: 2001
Издатель (лейбл): EMI Classics
Дата записи: 1962
Аудиокодек: APE
Тип рипа: image+.cue
Битрейт аудио: lossless
Продолжительность: 121:58
Источник: релизер (кнопка)
Исполнители:
Samson - Jon Vickers,
Dalila - Rita Gorr,
Le Grand Prêtre de Dagon - Ernest Blanc,
Abimélech/Le Vieillard Hébreu - Anton Diakov,
Le messager philistin - Rémy Corazza,
Premier philistin - Jacques Pottier,
Deuxième philistin - Jean-Pierre Hurteau.
Conductor - Georges Prêtre
Orchestra of L'Opéra de Paris
Chorale René Duclos
Recorded at Salle Wagram, Paris, France, 25-28 September & 1-10 October, 1962.

Лог создания рипаЛог создания рипа CD 1

Exact Audio Copy V0.99 prebeta 3 from 28. July 2007
EAC extraction logfile from 7. July 2008, 15:06
Camille Saint-Saens / Samson Et Dalila I
Used drive : MATSHITADVD-RAM UJ-812 Adapter: 1 ID: 0
Read mode : SecureUtilize accurate stream : YesDefeat audio cache : YesMake use of C2 pointers : No
Read offset correction : 102Overread into Lead-In and Lead-Out : NoFill up missing offset samples with silence : YesDelete leading and trailing silent blocks : NoNull samples used in CRC calculations : YesUsed interface : Native Win32 interface for Win NT & 2000
Used output format : Internal WAV RoutinesSample format : 44.100 Hz; 16 Bit; Stereo
TOC of the extracted CD
Track | Start | Length | Start sector | End sector --------------------------------------------------------- 1 | 0:00.00 | 2:09.02 | 0 | 9676 2 | 2:09.02 | 3:41.18 | 9677 | 26269 3 | 5:50.20 | 3:04.47 | 26270 | 40116 4 | 8:54.67 | 3:41.65 | 40117 | 56756 5 | 12:36.57 | 2:05.09 | 56757 | 66140 6 | 14:41.66 | 2:58.41 | 66141 | 79531 7 | 17:40.32 | 1:17.12 | 79532 | 85318 8 | 18:57.44 | 1:57.60 | 85319 | 94153 9 | 20:55.29 | 1:15.02 | 94154 | 99780 10 | 22:10.31 | 2:49.05 | 99781 | 112460 11 | 24:59.36 | 1:24.36 | 112461 | 118796 12 | 26:23.72 | 4:07.60 | 118797 | 137381 13 | 30:31.57 | 2:16.57 | 137382 | 147638 14 | 32:48.39 | 3:30.35 | 147639 | 163423 15 | 36:18.74 | 2:13.01 | 163424 | 173399 16 | 38:32.00 | 3:28.27 | 173400 | 189026 17 | 42:00.27 | 2:30.07 | 189027 | 200283
Range status and errors
Selected range
Filename C:\Documents and Settings\B.F.Pinkerton\Desktop\Camille Saint-Saens - Samson Et Dalila I.wav
Peak level 74.7 % Range quality 100.0 % Copy CRC 72FB0A48 Copy OK
No errors occurred
AccurateRip summary
Track 1 not present in databaseTrack 2 not present in databaseTrack 3 not present in databaseTrack 4 not present in databaseTrack 5 not present in databaseTrack 6 not present in databaseTrack 7 not present in databaseTrack 8 not present in databaseTrack 9 not present in databaseTrack 10 not present in databaseTrack 11 not present in databaseTrack 12 not present in databaseTrack 13 not present in databaseTrack 14 not present in databaseTrack 15 not present in databaseTrack 16 not present in databaseTrack 17 not present in database
None of the tracks are present in the AccurateRip database
End of status report

Лог создания рипа CD 2

Exact Audio Copy V0.99 prebeta 3 from 28. July 2007
EAC extraction logfile from 8. July 2008, 13:27
Camille Saint-Saлns / Samson Et Dalila II
Used drive : MATSHITADVD-RAM UJ-812 Adapter: 1 ID: 0
Read mode : SecureUtilize accurate stream : YesDefeat audio cache : YesMake use of C2 pointers : No
Read offset correction : 102Overread into Lead-In and Lead-Out : NoFill up missing offset samples with silence : YesDelete leading and trailing silent blocks : NoNull samples used in CRC calculations : YesUsed interface : Native Win32 interface for Win NT & 2000
Used output format : Internal WAV RoutinesSample format : 44.100 Hz; 16 Bit; Stereo
TOC of the extracted CD
Track | Start | Length | Start sector | End sector --------------------------------------------------------- 1 | 0:00.00 | 2:04.61 | 0 | 9360 2 | 2:04.61 | 3:57.58 | 9361 | 27193 3 | 6:02.44 | 2:16.08 | 27194 | 37401 4 | 8:18.52 | 2:53.52 | 37402 | 50428 5 | 11:12.29 | 3:02.05 | 50429 | 64083 6 | 14:14.34 | 2:09.41 | 64084 | 73799 7 | 16:24.00 | 3:14.58 | 73800 | 88407 8 | 19:38.58 | 1:08.54 | 88408 | 93561 9 | 20:47.37 | 2:44.48 | 93562 | 105909 10 | 23:32.10 | 2:55.67 | 105910 | 119101 11 | 26:28.02 | 3:07.30 | 119102 | 133156 12 | 29:35.32 | 5:15.49 | 133157 | 156830 13 | 34:51.06 | 4:45.54 | 156831 | 178259 14 | 39:36.60 | 1:38.51 | 178260 | 185660 15 | 41:15.36 | 1:43.33 | 185661 | 193418 16 | 42:58.69 | 2:25.31 | 193419 | 204324 17 | 45:24.25 | 1:51.70 | 204325 | 212719 18 | 47:16.20 | 2:53.60 | 212720 | 225754 19 | 50:10.05 | 1:23.62 | 225755 | 232041 20 | 51:33.67 | 2:33.04 | 232042 | 243520 21 | 54:06.71 | 6:57.54 | 243521 | 274849 22 | 61:04.50 | 1:16.38 | 274850 | 280587 23 | 62:21.13 | 3:31.71 | 280588 | 296483 24 | 65:53.09 | 2:10.15 | 296484 | 306248 25 | 68:03.24 | 2:40.21 | 306249 | 318269 26 | 70:43.45 | 1:16.60 | 318270 | 324029 27 | 72:00.30 | 1:23.46 | 324030 | 330300 28 | 73:24.01 | 1:49.69 | 330301 | 338544 29 | 75:13.70 | 1:30.57 | 338545 | 345351
Range status and errors
Selected range
Filename C:\Documents and Settings\B.F.Pinkerton\Desktop\Camille Saint-Saлns - Samson Et Dalila II.wav
Peak level 89.5 % Range quality 100.0 % Copy CRC 6361CF29 Copy OK
No errors occurred
AccurateRip summary
Track 1 not present in databaseTrack 2 not present in databaseTrack 3 not present in databaseTrack 4 not present in databaseTrack 5 not present in databaseTrack 6 not present in databaseTrack 7 not present in databaseTrack 8 not present in databaseTrack 9 not present in databaseTrack 10 not present in databaseTrack 11 not present in databaseTrack 12 not present in databaseTrack 13 not present in databaseTrack 14 not present in databaseTrack 15 not present in databaseTrack 16 not present in databaseTrack 17 not present in databaseTrack 18 not present in databaseTrack 19 not present in databaseTrack 20 not present in databaseTrack 21 not present in databaseTrack 22 not present in databaseTrack 23 not present in databaseTrack 24 not present in databaseTrack 25 not present in databaseTrack 26 not present in databaseTrack 27 not present in databaseTrack 28 not present in databaseTrack 29 not present in database
None of the tracks are present in the AccurateRip database
End of status report

CUE-filesCUE-files CD 1

REM GENRE OperaREM DATE 2001REM DISCID CF0A6E11REM COMMENT "ExactAudioCopy v0.99pb3"PERFORMER "Camille Saint-Saens"TITLE "Samson Et Dalila I"FILE "Camille Saint-Saens - Samson Et Dalila I.ape" WAVE TRACK 01 AUDIO TITLE "Act I: Introduction " PERFORMER "Camille Saint-Saens" INDEX 01 00:00:00 TRACK 02 AUDIO TITLE "Dieu ! Dieu d'Israel ! ecoute la priere de tes enfants " PERFORMER "Camille Saint-Saens" INDEX 01 02:09:02 TRACK 03 AUDIO TITLE "Quoi ! veux-tu donc qu'a jamais on efface " PERFORMER "Camille Saint-Saens" INDEX 01 05:50:20 TRACK 04 AUDIO TITLE "Arretez, o mes freres !" PERFORMER "Camille Saint-Saens" INDEX 00 08:54:58 INDEX 01 08:54:67 TRACK 05 AUDIO TITLE "Implorons a genoux le Seigneur qui nous aime ! " PERFORMER "Camille Saint-Saens" INDEX 00 12:36:49 INDEX 01 12:36:57 TRACK 06 AUDIO TITLE "Qui donct eleve ici la voix ? " PERFORMER "Camille Saint-Saens" INDEX 01 14:41:66 TRACK 07 AUDIO TITLE "C'est toi que sa bouche invective" PERFORMER "Camille Saint-Saens" INDEX 00 17:40:24 INDEX 01 17:40:32 TRACK 08 AUDIO TITLE "Israel ! romps ta chaine ! " PERFORMER "Camille Saint-Saens" INDEX 00 18:57:36 INDEX 01 18:57:44 TRACK 09 AUDIO TITLE "Que vois-je ! Abimelech! frappe par des escalves!" PERFORMER "Camille Saint-Saens" INDEX 00 20:51:51 INDEX 01 20:55:29 TRACK 10 AUDIO TITLE "Seigneur ! la troupe furieuse... Maudite a jamais soit la race" PERFORMER "Camille Saint-Saens" INDEX 00 22:10:18 INDEX 01 22:10:31 TRACK 11 AUDIO TITLE "Lever Du Jour (Daybreak)" PERFORMER "Camille Saint-Saens" INDEX 00 24:59:29 INDEX 01 24:59:36 TRACK 12 AUDIO TITLE "Hymne de joie, hymne de delivrance" PERFORMER "Camille Saint-Saens" INDEX 00 26:22:23 INDEX 01 26:23:72 TRACK 13 AUDIO TITLE "Voici le primtemps nous portant des fleurs" PERFORMER "Camille Saint-Saens" INDEX 00 30:31:49 INDEX 01 30:31:57 TRACK 14 AUDIO TITLE "Je viens celebrer la victoire..." PERFORMER "Camille Saint-Saens" INDEX 00 30:31:72 INDEX 01 32:48:39 TRACK 15 AUDIO TITLE "Dance of the priestesses of Dagon" PERFORMER "Camille Saint-Saens" INDEX 00 36:16:08 INDEX 01 36:18:74 TRACK 16 AUDIO TITLE "Printemps qui commence, portant l'esperance" PERFORMER "Camille Saint-Saens" INDEX 00 36:19:00 INDEX 01 38:32:00 TRACK 17 AUDIO TITLE "L'esprit du mal a conduit cette femme " PERFORMER "Camille Saint-Saens" INDEX 01 42:00:27

CUE-files CD 2

REM GENRE OperaREM DATE 2001REM DISCID B911FC1DREM COMMENT "ExactAudioCopy v0.99pb3"PERFORMER "Camille Saint-Saлns"TITLE "Samson Et Dalila II"FILE "Camille Saint-Saens - Samson Et Dalila II.ape" WAVE TRACK 01 AUDIO TITLE "Act II: Prelude " PERFORMER "Camille Saint-Saлns" INDEX 01 00:00:00 TRACK 02 AUDIO TITLE "Act II Samson, recherchant ma presence..." PERFORMER "Camille Saint-Saлns" INDEX 00 02:04:54 INDEX 01 02:04:61 TRACK 03 AUDIO TITLE "J'ai gravi la montage" PERFORMER "Camille Saint-Saлns" INDEX 01 06:02:44 TRACK 04 AUDIO TITLE "A tes genoux sa force un jour l'abondonna" PERFORMER "Camille Saint-Saлns" INDEX 00 08:18:44 INDEX 01 08:18:52 TRACK 05 AUDIO TITLE "Mais sur son coeur deja n'aurais-tu pas en vain" PERFORMER "Camille Saint-Saлns" INDEX 00 11:12:22 INDEX 01 11:12:29 TRACK 06 AUDIO TITLE "Il faut, pour assouvir ma haine" PERFORMER "Camille Saint-Saлns" INDEX 01 14:14:34 TRACK 07 AUDIO TITLE "Samson, me disais-tu, dans ces lieux doit se rendre ?..." PERFORMER "Camille Saint-Saлns" INDEX 01 16:24:00 TRACK 08 AUDIO TITLE "En ces lieux, malgre moi, m'ont ramene mes pas" PERFORMER "Camille Saint-Saлns" INDEX 00 19:38:34 INDEX 01 19:38:58 TRACK 09 AUDIO TITLE "C'est toi ! C'est toi, mon bien-aime!" PERFORMER "Camille Saint-Saлns" INDEX 00 20:47:30 INDEX 01 20:47:37 TRACK 10 AUDIO TITLE "D'Israel renait l'esperance" PERFORMER "Camille Saint-Saлns" INDEX 00 23:32:02 INDEX 01 23:32:10 TRACK 11 AUDIO TITLE "Un dieu plus puissant que le tien" PERFORMER "Camille Saint-Saлns" INDEX 00 26:27:59 INDEX 01 26:28:02 TRACK 12 AUDIO TITLE "Mon Coeur S'ouvre A Ta Voix" PERFORMER "Camille Saint-Saлns" INDEX 00 29:35:21 INDEX 01 29:35:32 TRACK 13 AUDIO TITLE "Mais !... non ! que dis-je ? helas, la triste Dalila!" PERFORMER "Camille Saint-Saлns" INDEX 00 34:50:74 INDEX 01 34:51:06 TRACK 14 AUDIO TITLE "A moi ! Philistins !... Trahison!" PERFORMER "Camille Saint-Saлns" INDEX 00 39:36:10 INDEX 01 39:36:60 TRACK 15 AUDIO TITLE "Act III, Tableau 1: Introduction " PERFORMER "Camille Saint-Saлns" INDEX 00 39:36:62 INDEX 01 41:15:36 TRACK 16 AUDIO TITLE "Vois ma misere, helas ! vois ma detresse!" PERFORMER "Camille Saint-Saлns" INDEX 00 42:58:62 INDEX 01 42:58:69 TRACK 17 AUDIO TITLE "Helas ! Israel dans les fers" PERFORMER "Camille Saint-Saлns" INDEX 00 45:24:18 INDEX 01 45:24:25 TRACK 18 AUDIO TITLE "Freres ! votre chant douloureux" PERFORMER "Camille Saint-Saлns" INDEX 00 47:16:13 INDEX 01 47:16:20 TRACK 19 AUDIO TITLE "Act III, Tableau 1, Scene 1: Interlude " PERFORMER "Camille Saint-Saлns" INDEX 00 50:09:72 INDEX 01 50:10:05 TRACK 20 AUDIO TITLE "L'aube que blanchit deja les coteaux" PERFORMER "Camille Saint-Saлns" INDEX 00 51:15:55 INDEX 01 51:33:67 TRACK 21 AUDIO TITLE "Act III, Tableau 2, Scene 2: Bacchanale" PERFORMER "Camille Saint-Saлns" INDEX 00 51:43:43 INDEX 01 54:06:71 TRACK 22 AUDIO TITLE "Salut! Salut Au Juge D'Israel" PERFORMER "Camille Saint-Saлns" INDEX 00 61:04:42 INDEX 01 61:04:50 TRACK 23 AUDIO TITLE "L'ame triste jusqu'a la mort" PERFORMER "Camille Saint-Saлns" INDEX 00 62:20:01 INDEX 01 62:21:13 TRACK 24 AUDIO TITLE "A'llons, Samson, divertis-nous" PERFORMER "Camille Saint-Saлns" INDEX 00 62:21:14 INDEX 01 65:53:09 TRACK 25 AUDIO TITLE "Viens, Dalila, rendre grece a nos dieux..." PERFORMER "Camille Saint-Saлns" INDEX 00 65:53:10 INDEX 01 68:03:24 TRACK 26 AUDIO TITLE "Dagon se revele!" PERFORMER "Camille Saint-Saлns" INDEX 00 68:03:27 INDEX 01 70:43:45 TRACK 27 AUDIO TITLE "Pour que le sort soit favorabl'e" PERFORMER "Camille Saint-Saлns" INDEX 00 72:00:24 INDEX 01 72:00:30 TRACK 28 AUDIO TITLE "Dagon se revele!" PERFORMER "Camille Saint-Saлns" INDEX 00 73:23:64 INDEX 01 73:24:01 TRACK 29 AUDIO TITLE "Souviens-toi de ton serviteur" PERFORMER "Camille Saint-Saлns" INDEX 00 73:24:02 INDEX 01 75:13:70

Треклист

Disc 1:
Act I:
1. Introduction
2. 'Dieu ! Dieu d'Israel ! ecoute la priere de tes enfants'
3. 'Quoi ! veux-tu donc qu'a jamais on efface'
4. 'Arretez, o mes freres !'
5. 'Implorons a genoux le Seigneur qui nous aime !'
6. 'Qui donct eleve ici la voix ?'
7. 'C'est toi que sa bouche invective'
8. 'Israel ! romps ta chaine !'
9. 'Que vois-je ! Abimelech ! frappe par des escalves !'
10. 'Seigneur ! la troupe furieuse... Maudite a jamais soit la race'
11. Daybreak
12. 'Hymne de joie, hymne de delivrance'
13. 'Voici le primtemps nous portant des fleurs'
14. 'Je viens celebrer la victoire...'
15. Dance of the priestesses of Dagon
16. 'Printemps qui commence, portant l'esperance'
17. 'L'esprit du mal a conduit cette femme'
Disc 2:
Act II:
1. Prelude
2. 'Samson, recherchant ma presence...'
3. 'J'ai gravi la montage'
4. 'A tes genoux sa force un jour l'abondonna'
5. 'Mais sur son coeur deja n'aurais-tu pas en vain'
6. 'Il faut, pour assouvir ma haine'
7. 'Samson, me disais-tu, dans ces lieux doit se rendre ?...'
8. 'En ces lieux, malgre moi, m'ont ramene mes pas'
9. 'C'est toi ! C'est toi, mon bien-aime !'
10. 'D'Israel renait l'esperance'
11. 'Un dieu plus puissant que le tien'
12. 'Mon Coeur S'ouvre A Ta Voix'
13. 'Mais !... non ! que dis-je ? helas, la triste Dalila !'
14. 'A moi ! Philistins !... Trahison !'
Act III:
15. Introduction
16. 'Vois ma misere, helas ! vois ma detresse !'
17. 'Helas ! Israel dans les fers'
18. 'Freres ! votre chant douloureux'
19. Interlude
20. 'L'aube que blanchit deja les coteaux'
21. Bacchanale
22. 'Salut! Salut Au Juge D'Israel'
23. 'L'ame triste jusqu'a la mort'
24. 'Allons, Samson, divertis-nous'
25. 'Viens, Dalila, rendre grece a nos dieux...'
26. 'Dagon se revele !'
27. 'Pour que le sort soit favorable'
28. 'Dagon se revele !'
29. 'Souviens-toi de ton serviteur'



Показать сообщения:    

Текущее время: 10-Дек 21:36

Часовой пояс: UTC + 3


Вы не можете начинать темы
Вы не можете отвечать на сообщения
Вы не можете редактировать свои сообщения
Вы не можете удалять свои сообщения
Вы не можете голосовать в опросах
Вы не можете прикреплять файлы к сообщениям
Вы не можете скачивать файлы