(Opera) Camille Saint-Saens - Samson et Dalila / Камиль Сен-Санс - Самсон и Далила (Louis Fourestier; Jose Luccioni, Helene Bouvier, Paul Cabanel), 1946 - Studio recording, FLAC (tracks+.cue), lossless


 

[Цитировать]

Camille Saint-Saens - Samson et Dalila / Камиль Сен-Санс - Самсон и Далила (Louis Fourestier; José Luccioni, Hélène Bouvier, Paul Cabanel)
Жанр: Opera
Страна-производитель диска: Франция
Год издания диска: 1994
Издатель (лейбл): EMI Classics
Дата записи: 1946
Аудиокодек: FLAC
Тип рипа: tracks+.cue
Битрейт аудио: lossless
Продолжительность: 126:39
Источник: релизер (Guillermo)
Исполнители:
Samson - José Luccioni,
Dalila - Hélène Bouvier,
Le Grand Prêtre de Dagon - Paul Cabanel,
Abimélech - Charles Cambon,
Le Vieillard Hébreu - Henri Médus.
Conductor - Louis Fourestier
Orchestra and Chorus of L'Opéra de Paris
Recorded at Theatre des Champs-Elysees, Paris, September 17-27, 1946.

Лог создания рипаЛог создания рипа CD 1

Exact Audio Copy V1.0 beta 3 from 29. August 2011
EAC extraction logfile from 10. October 2015, 14:33
Camille Saint-Saëns / Samson et Dalila cd1
Used drive : HL-DT-STDVDRAM GH24NSC0 Adapter: 3 ID: 0
Read mode : SecureUtilize accurate stream : YesDefeat audio cache : YesMake use of C2 pointers : No
Read offset correction : 6Overread into Lead-In and Lead-Out : NoFill up missing offset samples with silence : YesDelete leading and trailing silent blocks : NoNull samples used in CRC calculations : YesUsed interface : Native Win32 interface for Win NT & 2000Gap handling : Appended to previous track
Used output format : User Defined EncoderSelected bitrate : 768 kBit/sQuality : HighAdd ID3 tag : NoCommand line compressor : C:\Program Files (x86)\Exact Audio Copy\FLAC\FLAC.EXEAdditional command line options : -8 -V -T "ARTIST=%artist%" -T "TITLE=%title%" -T "ALBUM=%albumtitle%" -T "DATE=%year%" -T "TRACKNUMBER=%tracknr%" -T "GENRE=%genre%" -T "PERFORMER=%albuminterpret%" -T "COMPOSER=%composer%" %haslyrics%--tag-from-file=LYRICS="%lyricsfile%"%haslyrics% -T "ALBUMARTIST=%albumartist%" -T "DISCNUMBER=%cdnumber%" -T "TOTALDISCS=%totalcds%" -T "TOTALTRACKS=%numtracks%" -T "COMMENT=%comment%" %source% -o %dest%
TOC of the extracted CD
Track | Start | Length | Start sector | End sector --------------------------------------------------------- 1 | 0:00.33 | 5:02.32 | 33 | 22714 2 | 5:02.65 | 4:07.18 | 22715 | 41257 3 | 9:10.08 | 2:10.65 | 41258 | 51072 4 | 11:20.73 | 3:24.72 | 51073 | 66444 5 | 14:45.70 | 3:04.73 | 66445 | 80317 6 | 17:50.68 | 3:34.32 | 80318 | 96399 7 | 21:25.25 | 1:06.03 | 96400 | 101352 8 | 22:31.28 | 2:44.15 | 101353 | 113667 9 | 25:15.43 | 5:48.07 | 113668 | 139774 10 | 31:03.50 | 2:12.33 | 139775 | 149707 11 | 33:16.08 | 3:13.32 | 149708 | 164214 12 | 36:29.40 | 2:13.28 | 164215 | 174217 13 | 38:42.68 | 6:03.05 | 174218 | 201447
Track 1
Filename f:\Users\Guillermo\Desktop\EAC convertidos\01 Dieu! Dieu d'Israel! Écoute la prière.wav
Pre-gap length 0:00:02.44
Peak level 57.4 % Extraction speed 1.3 X Track quality 99.9 % Test CRC 064E4045 Copy CRC 064E4045 Copy OK
Track 2
Filename f:\Users\Guillermo\Desktop\EAC convertidos\02 Un jour, de nous tu détournas la face.wav
Peak level 70.6 % Extraction speed 1.7 X Track quality 100.0 % Test CRC 54C00498 Copy CRC 54C00498 Copy OK
Track 3
Filename f:\Users\Guillermo\Desktop\EAC convertidos\03 Arrêtez, ô mes frères! Et bénissez le nom.wav
Peak level 66.2 % Extraction speed 1.5 X Track quality 100.0 % Test CRC 33B90DB7 Copy CRC 33B90DB7 Copy OK
Track 4
Filename f:\Users\Guillermo\Desktop\EAC convertidos\04 L'as-tu donc oublié, celui dont la puissance.wav
Peak level 68.0 % Extraction speed 1.8 X Track quality 100.0 % Test CRC 5E4DF340 Copy CRC 5E4DF340 Copy OK
Track 5
Filename f:\Users\Guillermo\Desktop\EAC convertidos\05 Qui donc élève ici la voix.wav
Peak level 67.9 % Extraction speed 1.9 X Track quality 100.0 % Test CRC 9544BBD5 Copy CRC 9544BBD5 Copy OK
Track 6
Filename f:\Users\Guillermo\Desktop\EAC convertidos\06 C'est toi que sa bouche invective.wav
Peak level 64.5 % Extraction speed 2.0 X Track quality 100.0 % Test CRC 7C566917 Copy CRC 7C566917 Copy OK
Track 7
Filename f:\Users\Guillermo\Desktop\EAC convertidos\07 Que vois-je! Abimélech!.wav
Peak level 52.4 % Extraction speed 1.4 X Track quality 100.0 % Test CRC 8602522F Copy CRC 8602522F Copy OK
Track 8
Filename f:\Users\Guillermo\Desktop\EAC convertidos\08 Seigneur! La troupe furieuse.wav
Peak level 65.7 % Extraction speed 2.0 X Track quality 100.0 % Test CRC 503093C3 Copy CRC 503093C3 Copy OK
Track 9
Filename f:\Users\Guillermo\Desktop\EAC convertidos\09 Hymne de joie, hymne de délivrance.wav
Peak level 59.7 % Extraction speed 2.5 X Track quality 100.0 % Test CRC 8012C410 Copy CRC 8012C410 Copy OK
Track 10
Filename f:\Users\Guillermo\Desktop\EAC convertidos\10 Voici le printemps nous portant des fleurs.wav
Peak level 59.5 % Extraction speed 2.1 X Track quality 100.0 % Test CRC 26C0E300 Copy CRC 26C0E300 Copy OK
Track 11
Filename f:\Users\Guillermo\Desktop\EAC convertidos\11 Je viens célébrer la victoire.wav
Peak level 70.4 % Extraction speed 2.0 X Track quality 99.8 % Test CRC A25FAC53 Copy CRC A25FAC53 Copy OK
Track 12
Filename f:\Users\Guillermo\Desktop\EAC convertidos\12 Danse des prêtresses de Dagon.wav
Peak level 28.3 % Extraction speed 2.2 X Track quality 100.0 % Test CRC 162380D8 Copy CRC 162380D8 Copy OK
Track 13
Filename f:\Users\Guillermo\Desktop\EAC convertidos\13 =Printemps qui commence.wav
Peak level 67.1 % Extraction speed 2.9 X Track quality 100.0 % Test CRC 5C3187E2 Copy CRC 5C3187E2 Copy OK
No errors occurred
End of status report
==== Log checksum C9523261E42566654E96DF07F4694489F265B5B623B779F7F011FF4ADF0C68F1 ====

Лог создания рипа CD 2

Exact Audio Copy V1.0 beta 3 from 29. August 2011
EAC extraction logfile from 10. October 2015, 18:10
Camille Saint-Saëns / Samson et Dalila
Used drive : HL-DT-STDVDRAM GH24NSC0 Adapter: 3 ID: 0
Read mode : SecureUtilize accurate stream : YesDefeat audio cache : YesMake use of C2 pointers : No
Read offset correction : 6Overread into Lead-In and Lead-Out : NoFill up missing offset samples with silence : YesDelete leading and trailing silent blocks : NoNull samples used in CRC calculations : YesUsed interface : Native Win32 interface for Win NT & 2000Gap handling : Appended to previous track
Used output format : User Defined EncoderSelected bitrate : 768 kBit/sQuality : HighAdd ID3 tag : NoCommand line compressor : C:\Program Files (x86)\Exact Audio Copy\FLAC\FLAC.EXEAdditional command line options : -8 -V -T "ARTIST=%artist%" -T "TITLE=%title%" -T "ALBUM=%albumtitle%" -T "DATE=%year%" -T "TRACKNUMBER=%tracknr%" -T "GENRE=%genre%" -T "PERFORMER=%albuminterpret%" -T "COMPOSER=%composer%" %haslyrics%--tag-from-file=LYRICS="%lyricsfile%"%haslyrics% -T "ALBUMARTIST=%albumartist%" -T "DISCNUMBER=%cdnumber%" -T "TOTALDISCS=%totalcds%" -T "TOTALTRACKS=%numtracks%" -T "COMMENT=%comment%" %source% -o %dest%
TOC of the extracted CD
Track | Start | Length | Start sector | End sector --------------------------------------------------------- 1 | 0:00.33 | 1:35.37 | 33 | 7194 2 | 1:35.70 | 4:04.10 | 7195 | 25504 3 | 5:40.05 | 4:18.30 | 25505 | 44884 4 | 9:58.35 | 3:37.33 | 44885 | 61192 5 | 13:35.68 | 1:59.57 | 61193 | 70174 6 | 15:35.50 | 2:20.23 | 70175 | 80697 7 | 17:55.73 | 4:11.20 | 80698 | 99542 8 | 22:07.18 | 4:28.35 | 99543 | 119677 9 | 26:35.53 | 5:32.10 | 119678 | 144587 10 | 32:07.63 | 5:43.07 | 144588 | 170319 11 | 37:50.70 | 9:08.55 | 170320 | 211474 12 | 46:59.50 | 2:39.33 | 211475 | 223432 13 | 49:39.08 | 6:44.25 | 223433 | 253757 14 | 56:23.33 | 2:03.57 | 253758 | 263039 15 | 58:27.15 | 2:45.10 | 263040 | 275424 16 | 61:12.25 | 2:11.23 | 275425 | 285272 17 | 63:23.48 | 4:12.05 | 285273 | 304177 18 | 67:35.53 | 3:58.42 | 304178 | 322069
Track 1
Filename f:\Users\Guillermo\Desktop\EAC convertidos\01 Prélude.wav
Pre-gap length 0:00:02.44
Peak level 36.9 % Extraction speed 1.3 X Track quality 100.0 % Test CRC 868E94C2 Copy CRC 868E94C2 Copy OK
Track 2
Filename f:\Users\Guillermo\Desktop\EAC convertidos\02 Samson, recherchant ma présence.wav
Peak level 62.4 % Extraction speed 1.7 X Track quality 100.0 % Test CRC C4AEEDE4 Copy CRC C4AEEDE4 Copy OK
Track 3
Filename f:\Users\Guillermo\Desktop\EAC convertidos\03 J'ai gravi la montagne.wav
Peak level 75.2 % Extraction speed 1.9 X Track quality 100.0 % Test CRC 4FC73478 Copy CRC 4FC73478 Copy OK
Track 4
Filename f:\Users\Guillermo\Desktop\EAC convertidos\04 Qu'importe à Dalila ton or.wav
Peak level 68.9 % Extraction speed 2.0 X Track quality 100.0 % Test CRC 4153654F Copy CRC 4153654F Copy OK
Track 5
Filename f:\Users\Guillermo\Desktop\EAC convertidos\05 Il faut, pour assouvir ma haine.wav
Peak level 71.9 % Extraction speed 1.8 X Track quality 100.0 % Test CRC A0B38B78 Copy CRC A0B38B78 Copy OK
Track 6
Filename f:\Users\Guillermo\Desktop\EAC convertidos\06 Samson, me disais-tu, dans ces lieux.wav
Peak level 44.9 % Extraction speed 1.9 X Track quality 100.0 % Test CRC 3E2C6D37 Copy CRC 3E2C6D37 Copy OK
Track 7
Filename f:\Users\Guillermo\Desktop\EAC convertidos\07 En ces lieux, malgré moi.wav
Peak level 80.1 % Extraction speed 2.3 X Track quality 100.0 % Test CRC 90B5D5C6 Copy CRC 90B5D5C6 Copy OK
Track 8
Filename f:\Users\Guillermo\Desktop\EAC convertidos\08 Qu'importe à mon coeur désolé.wav
Peak level 94.6 % Extraction speed 2.4 X Track quality 100.0 % Test CRC F25C9509 Copy CRC F25C9509 Copy OK
Track 9
Filename f:\Users\Guillermo\Desktop\EAC convertidos\09 Mon coeur s'ouvre à ta voix.wav
Peak level 81.6 % Extraction speed 2.7 X Track quality 100.0 % Test CRC BDC5DF04 Copy CRC BDC5DF04 Copy OK
Track 10
Filename f:\Users\Guillermo\Desktop\EAC convertidos\10 Mais!...Non! Que dis-je.wav
Peak level 75.7 % Extraction speed 2.0 X Track quality 99.8 % Copy CRC 01235AB5 Copy OK
Track 11
Filename f:\Users\Guillermo\Desktop\EAC convertidos\11 Vois ma misère, hélas! Vois ma détresse!.wav
Pre-gap length 0:00:05.73
Peak level 66.5 % Extraction speed 2.9 X Track quality 99.9 % Test CRC C59BEE44 Copy CRC C59BEE44 Copy OK
Track 12
Filename f:\Users\Guillermo\Desktop\EAC convertidos\12 L'aube qui blanchit déjà les coteaux.wav
Peak level 37.9 % Extraction speed 2.8 X Track quality 100.0 % Test CRC 901CC4EB Copy CRC 901CC4EB Copy OK
Track 13
Filename f:\Users\Guillermo\Desktop\EAC convertidos\13 Bacchanale.wav
Peak level 57.1 % Extraction speed 3.4 X Track quality 100.0 % Test CRC B50D6B81 Copy CRC B50D6B81 Copy OK
Track 14
Filename f:\Users\Guillermo\Desktop\EAC convertidos\14 Salut! Salut au juge d'Israel.wav
Peak level 56.4 % Extraction speed 2.7 X Track quality 100.0 % Test CRC 0EDB88BD Copy CRC 0EDB88BD Copy OK
Track 15
Filename f:\Users\Guillermo\Desktop\EAC convertidos\15 Laisse-moi prendre ta main.wav
Peak level 65.8 % Extraction speed 3.0 X Track quality 100.0 % Test CRC 8268D359 Copy CRC 8268D359 Copy OK
Track 16
Filename f:\Users\Guillermo\Desktop\EAC convertidos\16 Allons, Samson, divertis-nous.wav
Peak level 67.9 % Extraction speed 2.2 X Track quality 99.8 % Test CRC D22647C4 Copy CRC D22647C4 Copy OK
Track 17
Filename f:\Users\Guillermo\Desktop\EAC convertidos\17 Viens, Dalila, rendre grâce à nos dieux.wav
Peak level 62.2 % Extraction speed 2.9 X Track quality 99.9 % Test CRC C35169E0 Copy CRC C35169E0 Copy OK
Track 18
Filename f:\Users\Guillermo\Desktop\EAC convertidos\18 Guidex mes pas vers le milieu du temple.wav
Peak level 67.0 % Extraction speed 3.4 X Track quality 100.0 % Test CRC 19B8DB95 Copy CRC 19B8DB95 Copy OK
No errors occurred
End of status report
==== Log checksum F5477B8F0E142DA02407280E6E5472E13ECDD435637340EB824025CC235F1D63 ====

Содержание индексной карты (.CUE)Содержание индексной карты (.CUE) CD 1

REM DISCID B90A7D0DREM COMMENT "ExactAudioCopy v1.0b3"FILE "01 Dieu! Dieu d'Israel! Йcoute la priиre.wav" WAVE TRACK 01 AUDIO PREGAP 00:00:33 INDEX 01 00:00:00FILE "02 Un jour, de nous tu dйtournas la face.wav" WAVE TRACK 02 AUDIO INDEX 01 00:00:00FILE "03 Arrкtez, ф mes frиres! Et bйnissez le nom.wav" WAVE TRACK 03 AUDIO INDEX 01 00:00:00FILE "04 L'as-tu donc oubliй, celui dont la puissance.wav" WAVE TRACK 04 AUDIO INDEX 01 00:00:00FILE "05 Qui donc йlиve ici la voix.wav" WAVE TRACK 05 AUDIO INDEX 01 00:00:00FILE "06 C'est toi que sa bouche invective.wav" WAVE TRACK 06 AUDIO INDEX 01 00:00:00FILE "07 Que vois-je! Abimйlech!.wav" WAVE TRACK 07 AUDIO INDEX 01 00:00:00FILE "08 Seigneur! La troupe furieuse.wav" WAVE TRACK 08 AUDIO INDEX 01 00:00:00FILE "09 Hymne de joie, hymne de dйlivrance.wav" WAVE TRACK 09 AUDIO INDEX 01 00:00:00FILE "10 Voici le printemps nous portant des fleurs.wav" WAVE TRACK 10 AUDIO INDEX 01 00:00:00FILE "11 Je viens cйlйbrer la victoire.wav" WAVE TRACK 11 AUDIO INDEX 01 00:00:00FILE "12 Danse des prкtresses de Dagon.wav" WAVE TRACK 12 AUDIO INDEX 01 00:00:00FILE "13 =Printemps qui commence.wav" WAVE TRACK 13 AUDIO INDEX 01 00:00:00

Содержание индексной карты (.CUE) CD 2

REM DISCID 1410C612REM COMMENT "ExactAudioCopy v1.0b3"FILE "01 Prйlude.wav" WAVE TRACK 01 AUDIO PREGAP 00:00:33 INDEX 01 00:00:00FILE "02 Samson, recherchant ma prйsence.wav" WAVE TRACK 02 AUDIO INDEX 01 00:00:00FILE "03 J'ai gravi la montagne.wav" WAVE TRACK 03 AUDIO INDEX 01 00:00:00FILE "04 Qu'importe а Dalila ton or.wav" WAVE TRACK 04 AUDIO INDEX 01 00:00:00FILE "05 Il faut, pour assouvir ma haine.wav" WAVE TRACK 05 AUDIO INDEX 01 00:00:00FILE "06 Samson, me disais-tu, dans ces lieux.wav" WAVE TRACK 06 AUDIO INDEX 01 00:00:00FILE "07 En ces lieux, malgrй moi.wav" WAVE TRACK 07 AUDIO INDEX 01 00:00:00FILE "08 Qu'importe а mon coeur dйsolй.wav" WAVE TRACK 08 AUDIO INDEX 01 00:00:00FILE "09 Mon coeur s'ouvre а ta voix.wav" WAVE TRACK 09 AUDIO INDEX 01 00:00:00FILE "10 Mais!...Non! Que dis-je.wav" WAVE TRACK 10 AUDIO INDEX 01 00:00:00 TRACK 11 AUDIO INDEX 00 05:37:27FILE "11 Vois ma misиre, hйlas! Vois ma dйtresse!.wav" WAVE INDEX 01 00:00:00FILE "12 L'aube qui blanchit dйjа les coteaux.wav" WAVE TRACK 12 AUDIO INDEX 01 00:00:00FILE "13 Bacchanale.wav" WAVE TRACK 13 AUDIO INDEX 01 00:00:00FILE "14 Salut! Salut au juge d'Israel.wav" WAVE TRACK 14 AUDIO INDEX 01 00:00:00FILE "15 Laisse-moi prendre ta main.wav" WAVE TRACK 15 AUDIO INDEX 01 00:00:00FILE "16 Allons, Samson, divertis-nous.wav" WAVE TRACK 16 AUDIO INDEX 01 00:00:00FILE "17 Viens, Dalila, rendre grвce а nos dieux.wav" WAVE TRACK 17 AUDIO INDEX 01 00:00:00FILE "18 Guidex mes pas vers le milieu du temple.wav" WAVE TRACK 18 AUDIO INDEX 01 00:00:00

Треклист

Disc 1:
Act I:
1. "Dieu ! Dieu d'Israël ! écoute la prière de tes enfants"
2. "Un jour"
3. "Arrêtez, ô mes frères !"
4. ''L'as-tu donc oublie"
5. "Qui donc élève ici la voix ?"
6. "C'est toi que sa bouche invective"
7. "Que vois-je ! Abimelech ! frappé par des escalves !"
8. "Seigneur ! la troupe furieuse... Maudite à jamais soit la race"
9. "Hymne de joie, hymne de délivrance"
10. "Voici le primtemps nous portant des fleurs"
11. "Je viens célèbrer la victoire..."
12. Dance of the priestesses of Dagon
13. "Printemps qui commence, portant l'espérance"
Disc 2:
Act II:
1. Prelude
2. "Samson, recherchant ma présence..."
3. "J'ai gravi la montage"
4. ''Qu'importe a Dalila ton or?''
5. "Il faut, pour assouvir ma haine"
6. "Samson, me disais-tu, dans ces lieux doit se rendre ?..."
7. "En ces lieux, malgré moi, m'ont ramené mes pas"
8. "Qu'importe a mon coer"
9. "Mon coeur s'ouvre à ta voix"
10. "Mais !... non ! que dis-je ? hélas, la triste Dalila !"
Act III:
11. "Vois ma misère, hélas ! vois ma détresse !"
12. "L'aube que blanchit déja les coteaux"
13. Bacchanale
14. "Salut ! Salut au juge d' Israël"
15. "Laisse-moi prendre ta main"
16. "Allons, Samson, divertis-nous"
17. "Viens, Dalila, rendre grâce à nos dieux..."
18. "Guidez ses pas"



Показать сообщения:    

Текущее время: 09-Дек 01:06

Часовой пояс: UTC + 3


Вы не можете начинать темы
Вы не можете отвечать на сообщения
Вы не можете редактировать свои сообщения
Вы не можете удалять свои сообщения
Вы не можете голосовать в опросах
Вы не можете прикреплять файлы к сообщениям
Вы не можете скачивать файлы