(Opera) Vincenzo Bellini - La Sonnambula / Винченцо Беллини - Сомнамбула (Franco Capuana; Lina Pagliughi, Ferruccio Tagliavini, Cesare Siepi, Wanda Ruggeri), 1952 - Torino's RAI Studio / FLAC (tracks+.cue), lossless


 

[Цитировать]

Vincenzo Bellini - La Sonnambula / Винченцо Беллини - Сомнамбула (Franco Capuana; Lina Pagliughi, Ferruccio Tagliavini, Cesare Siepi, Wanda Ruggeri)
Жанр: Opera
Страна-производитель диска: Италия
Год издания диска: 2001
Издатель (лейбл): Fonit Cetra/Warner
Дата записи: 1952
Аудиокодек: FLAC
Тип рипа: tracks+.cue
Битрейт аудио: lossless
Продолжительность: 119:48
Источник: релизер (Guillermo)
Исполнители:
Amina - Lina Pagliughi,
Elvino - Ferruccio Tagliavini,
Rodolfo - Cesare Siepi,
Lisa - Wanda Ruggeri,
Alessio - Pier Luigi Latinucci,
Notaro - Armando Benzi,
Teresa - Anna Maria Anelli.
Conductor - Franco Capuana
Orchestra and Chorus of RAI Torino
Recorded at Torino's RAI Studio, Italy, July 24, 1952 - July 28, 1952.

Лог создания рипаЛог создания рипа CD 1

Exact Audio Copy V1.0 beta 3 from 29. August 2011
EAC extraction logfile from 1. November 2015, 17:18
Vincenzo Bellini / La Sonnambula
Used drive : HL-DT-STDVDRAM GH24NSC0 Adapter: 3 ID: 0
Read mode : SecureUtilize accurate stream : YesDefeat audio cache : YesMake use of C2 pointers : No
Read offset correction : 6Overread into Lead-In and Lead-Out : NoFill up missing offset samples with silence : YesDelete leading and trailing silent blocks : NoNull samples used in CRC calculations : YesUsed interface : Native Win32 interface for Win NT & 2000Gap handling : Appended to previous track
Used output format : User Defined EncoderSelected bitrate : 768 kBit/sQuality : HighAdd ID3 tag : NoCommand line compressor : C:\Program Files (x86)\Exact Audio Copy\FLAC\FLAC.EXEAdditional command line options : -8 -V -T "ARTIST=%artist%" -T "TITLE=%title%" -T "ALBUM=%albumtitle%" -T "DATE=%year%" -T "TRACKNUMBER=%tracknr%" -T "GENRE=%genre%" -T "PERFORMER=%albuminterpret%" -T "COMPOSER=%composer%" %haslyrics%--tag-from-file=LYRICS="%lyricsfile%"%haslyrics% -T "ALBUMARTIST=%albumartist%" -T "DISCNUMBER=%cdnumber%" -T "TOTALDISCS=%totalcds%" -T "TOTALTRACKS=%numtracks%" -T "COMMENT=%comment%" %source% -o %dest%
TOC of the extracted CD
Track | Start | Length | Start sector | End sector --------------------------------------------------------- 1 | 0:00.00 | 8:56.25 | 0 | 40224 2 | 8:56.25 | 7:48.25 | 40225 | 75349 3 | 16:44.50 | 2:16.50 | 75350 | 85599 4 | 19:01.25 | 10:42.40 | 85600 | 133789 5 | 29:43.65 | 7:14.35 | 133790 | 166374 6 | 36:58.25 | 6:42.00 | 166375 | 196524 7 | 43:40.25 | 11:04.00 | 196525 | 246324
Track 1
Filename f:\Users\Guillermo\Desktop\EAC convertidos\01 Atto I - Viva Amina (Coro Alessio Lisa).wav
Pre-gap length 0:00:02.00
Peak level 86.4 % Extraction speed 1.7 X Track quality 100.0 % Test CRC BF2B0358 Copy CRC BF2B0358 Copy OK
Track 2
Filename f:\Users\Guillermo\Desktop\EAC convertidos\02 Care compagne et voi .. (Amina Coro).wav
Peak level 86.9 % Extraction speed 2.0 X Track quality 100.0 % Test CRC 35E0FE50 Copy CRC 35E0FE50 Copy OK
Track 3
Filename f:\Users\Guillermo\Desktop\EAC convertidos\03 Io pi� di tutti (Alessio Amina Lisa Teresa Coro Notaro).wav
Peak level 52.6 % Extraction speed 1.7 X Track quality 100.0 % Test CRC E0FD75E0 Copy CRC E0FD75E0 Copy OK
Track 4
Filename f:\Users\Guillermo\Desktop\EAC convertidos\04 Perdona o mia diletta (Elvino Amina Coro Noturo Lisa).wav
Peak level 85.0 % Extraction speed 2.5 X Track quality 100.0 % Test CRC 585ED7BB Copy CRC 585ED7BB Copy OK
Track 5
Filename f:\Users\Guillermo\Desktop\EAC convertidos\05 Domani appena aggiorni (Elvino Coro Amina Rodolfo Lisa).wav
Peak level 77.3 % Extraction speed 2.7 X Track quality 100.0 % Test CRC 604BEE08 Copy CRC 604BEE08 Copy OK
Track 6
Filename f:\Users\Guillermo\Desktop\EAC convertidos\06 Contezza de paese (Elvino Rodolfo Teresa Lida Coro Amina).wav
Peak level 85.5 % Extraction speed 2.8 X Track quality 100.0 % Test CRC 6D28B404 Copy CRC 6D28B404 Copy OK
Track 7
Filename f:\Users\Guillermo\Desktop\EAC convertidos\07 Basta cosi .. son geloso del zefiro (Rodolfo Teresa Coro Elvino Amina).wav
Peak level 71.0 % Extraction speed 3.2 X Track quality 100.0 % Test CRC A40C3BE2 Copy CRC A40C3BE2 Copy OK
No errors occurred
End of status report
==== Log checksum 4221506C7BBEA34DCD83D836360B9C2A736CB7FB620D464CD9FAF91AD535FEB1 ====

Лог создания рипа CD 2

Exact Audio Copy V1.0 beta 3 from 29. August 2011
EAC extraction logfile from 1. November 2015, 19:00
Pagliughi, Tagliavini, Siepi / Bellini - La Sonnambula (Capuana) CD2
Used drive : HL-DT-STDVDRAM GH24NSC0 Adapter: 3 ID: 0
Read mode : SecureUtilize accurate stream : YesDefeat audio cache : YesMake use of C2 pointers : No
Read offset correction : 6Overread into Lead-In and Lead-Out : NoFill up missing offset samples with silence : YesDelete leading and trailing silent blocks : NoNull samples used in CRC calculations : YesUsed interface : Native Win32 interface for Win NT & 2000Gap handling : Appended to previous track
Used output format : User Defined EncoderSelected bitrate : 768 kBit/sQuality : HighAdd ID3 tag : NoCommand line compressor : C:\Program Files (x86)\Exact Audio Copy\FLAC\FLAC.EXEAdditional command line options : -8 -V -T "ARTIST=%artist%" -T "TITLE=%title%" -T "ALBUM=%albumtitle%" -T "DATE=%year%" -T "TRACKNUMBER=%tracknr%" -T "GENRE=%genre%" -T "PERFORMER=%albuminterpret%" -T "COMPOSER=%composer%" %haslyrics%--tag-from-file=LYRICS="%lyricsfile%"%haslyrics% -T "ALBUMARTIST=%albumartist%" -T "DISCNUMBER=%cdnumber%" -T "TOTALDISCS=%totalcds%" -T "TOTALTRACKS=%numtracks%" -T "COMMENT=%comment%" %source% -o %dest%
TOC of the extracted CD
Track | Start | Length | Start sector | End sector --------------------------------------------------------- 1 | 0:00.33 | 3:50.35 | 33 | 17317 2 | 3:50.68 | 10:16.20 | 17318 | 63537 3 | 14:07.13 | 7:02.45 | 63538 | 95232 4 | 21:09.58 | 2:12.35 | 95233 | 105167 5 | 23:22.18 | 6:30.70 | 105168 | 134487 6 | 29:53.13 | 10:35.40 | 134488 | 182152 7 | 40:28.53 | 6:49.32 | 182153 | 212859 8 | 47:18.10 | 7:36.13 | 212860 | 247072 9 | 54:54.23 | 6:32.67 | 247073 | 276539 10 | 61:27.15 | 3:30.18 | 276540 | 292307
Track 1
Filename f:\Users\Guillermo\Desktop\EAC convertidos\01 Davver, non mi dispiace.wav
Pre-gap length 0:00:02.44
Peak level 65.7 % Extraction speed 1.6 X Track quality 100.0 % Test CRC 6FADAE45 Copy CRC 6FADAE45 Copy OK
Track 2
Filename f:\Users\Guillermo\Desktop\EAC convertidos\02 Che veggio Saria forse.wav
Peak level 65.6 % Extraction speed 2.1 X Track quality 100.0 % Test CRC 80EF5940 Copy CRC 80EF5940 Copy OK
Track 3
Filename f:\Users\Guillermo\Desktop\EAC convertidos\03 E menzogna!.wav
Peak level 92.1 % Extraction speed 2.4 X Track quality 100.0 % Test CRC C24D9DC2 Copy CRC C24D9DC2 Copy OK
Track 4
Filename f:\Users\Guillermo\Desktop\EAC convertidos\04 Non piu nozze.wav
Peak level 84.4 % Extraction speed 2.0 X Track quality 100.0 % Test CRC 3AB92E5E Copy CRC 3AB92E5E Copy OK
Track 5
Filename f:\Users\Guillermo\Desktop\EAC convertidos\05 Act 2 Qui la selva e piu folta.wav
Peak level 84.4 % Extraction speed 2.6 X Track quality 100.0 % Test CRC A05553C1 Copy CRC A05553C1 Copy OK
Track 6
Filename f:\Users\Guillermo\Desktop\EAC convertidos\06 Reggimi, o buona madre.wav
Peak level 87.8 % Extraction speed 3.0 X Track quality 100.0 % Test CRC 5AC50738 Copy CRC 5AC50738 Copy OK
Track 7
Filename f:\Users\Guillermo\Desktop\EAC convertidos\07 E fia pur vero, Elvino.wav
Peak level 90.3 % Extraction speed 3.1 X Track quality 100.0 % Test CRC CEC12782 Copy CRC CEC12782 Copy OK
Track 8
Filename f:\Users\Guillermo\Desktop\EAC convertidos\08 Signor Che creder deggio.wav
Peak level 64.0 % Extraction speed 3.3 X Track quality 100.0 % Test CRC 3947F401 Copy CRC 3947F401 Copy OK
Track 9
Filename f:\Users\Guillermo\Desktop\EAC convertidos\09 Ah! non credea mirarti.wav
Peak level 85.2 % Extraction speed 3.1 X Track quality 99.9 % Test CRC EF482C89 Copy CRC EF482C89 Copy OK
Track 10
Filename f:\Users\Guillermo\Desktop\EAC convertidos\10 Ah! non giunge.wav
Peak level 90.6 % Extraction speed 3.2 X Track quality 100.0 % Test CRC 1BC14DE6 Copy CRC 1BC14DE6 Copy OK
No errors occurred
End of status report
==== Log checksum 2E805AC32F32BBD79AE0F4C7B89CEAF1C753CA87F30209C5891269372265298B ====

Содержание индексной карты (.CUE)Содержание индексной карты (.CUE) CD 1

REM GENRE ClassicalREM DATE 1952REM DISCID 490CD407REM COMMENT "ExactAudioCopy v1.0b3"FILE "01 Atto I - Viva Amina (Coro Alessio Lisa).wav" WAVE TRACK 01 AUDIO INDEX 01 00:00:00FILE "02 Care compagne et voi .. (Amina Coro).wav" WAVE TRACK 02 AUDIO INDEX 01 00:00:00FILE "03 Io pi. di tutti (Alessio Amina Lisa Teresa Coro Notaro).wav" WAVE TRACK 03 AUDIO INDEX 01 00:00:00FILE "04 Perdona o mia diletta (Elvino Amina Coro Noturo Lisa).wav" WAVE TRACK 04 AUDIO INDEX 01 00:00:00FILE "05 Domani appena aggiorni (Elvino Coro Amina Rodolfo Lisa).wav" WAVE TRACK 05 AUDIO INDEX 01 00:00:00FILE "06 Contezza de paese (Elvino Rodolfo Teresa Lida Coro Amina).wav" WAVE TRACK 06 AUDIO INDEX 01 00:00:00FILE "07 Basta cosi .. son geloso del zefiro (Rodolfo Teresa Coro Elvino Amina).wav" WAVE TRACK 07 AUDIO INDEX 01 00:00:00

Содержание индексной карты (.CUE) CD 2

REM GENRE OperaREM DATE 1952REM DISCID 8D0F390AREM COMMENT "ExactAudioCopy v1.0b3"FILE "01 Davver, non mi dispiace.wav" WAVE TRACK 01 AUDIO PREGAP 00:00:33 INDEX 01 00:00:00FILE "02 Che veggio Saria forse.wav" WAVE TRACK 02 AUDIO INDEX 01 00:00:00FILE "03 E menzogna!.wav" WAVE TRACK 03 AUDIO INDEX 01 00:00:00FILE "04 Non piu nozze.wav" WAVE TRACK 04 AUDIO INDEX 01 00:00:00FILE "05 Act 2 Qui la selva e piu folta.wav" WAVE TRACK 05 AUDIO INDEX 01 00:00:00FILE "06 Reggimi, o buona madre.wav" WAVE TRACK 06 AUDIO INDEX 01 00:00:00FILE "07 E fia pur vero, Elvino.wav" WAVE TRACK 07 AUDIO INDEX 01 00:00:00FILE "08 Signor Che creder deggio.wav" WAVE TRACK 08 AUDIO INDEX 01 00:00:00FILE "09 Ah! non credea mirarti.wav" WAVE TRACK 09 AUDIO INDEX 01 00:00:00FILE "10 Ah! non giunge.wav" WAVE TRACK 10 AUDIO INDEX 01 00:00:00

Треклист

Disc 1:
1. Viva Amina!
2. Care compagne, e voi... Sovra il sen la man mi posa
3. Io più di tutti
4. Perdona, o mia diletta... Prendi: l'anel ti dono
5. Domani, appena aggiorni... Vi ravviso, o luoghi ameni... Tu non sai con quei begli occhi
6. Contezza del paese... A fosco cielo
7. Basta così... Son geloso del zefiro
Disc 2:
1. Davver, non mi dispiace
2. Che veggio? Saria forse... Oh, ciel! che tento?
3. È menzogna!
4. Non più nozze
5. Qui la selva è più folta
6. Reggimi, o buona madre... Pasci il guardo e appaga l'alma
7. E fie pur vero, Elvino... Signor conte, agli occhi miei
8. Signor?... che creder deggio
9. Ah! non credea mirarti
10. Ah! non giunge



Показать сообщения:    

Текущее время: 10-Дек 06:10

Часовой пояс: UTC + 3


Вы не можете начинать темы
Вы не можете отвечать на сообщения
Вы не можете редактировать свои сообщения
Вы не можете удалять свои сообщения
Вы не можете голосовать в опросах
Вы не можете прикреплять файлы к сообщениям
Вы не можете скачивать файлы