(Opera buffa) Antonio Salieri (Антонио Сальери) - La grotta di Trofonio (Raffaella Milanesi / Les Talens Lyriques, Christophe Rousset) [2CD's]- 2006, FLAC (tracks+.cue) lossless


 

[Цитировать]

Antonio Salieri (Антонио Сальери) - La grotta di Trofonio (Les Talens Lyriques, Christophe Rousset)
Жанр: Opera buffa
Страна-производитель диска: Made in France
Год издания диска: 2006
Издатель (лейбл): Ambroisie France
Номер по каталогу: AMB 9986
Дата записи: 2005
Аудиокодек: FLAC
Тип рипа: tracks+.cue
Битрейт аудио: lossless
Продолжительность: 75'33 + 62'15
Источник: релизер
сайт-источник/ник/другое: Duckjammy and Meeting in Music blogspot, сканы Carbozie и Nibelung
Наличие сканов в содержимом раздачи: да
Треклист:

скрытый текст

Disc: 1

скрытый текст

1. Sinfonia
2. Mie Care Figliuole...
3. Figlie Mie, M'intendeste.
4. Orsu Gia Compresi
5. Ofelia, Io So Che Spesso
6. D'un Dolce Amor La Face
7. Ma Veggio Artemidoro Che Qua Sen Vien.
8. Il Diletto Che In Petto Mi Sento
9. Evviva!
10. Da Una Fonte Istesso
11. Io Credo Artemidoro, Che Come E Tuo Costume...
12. Ne Los Stato Conjugale
13. Spiriti Invisibili Che Ite Per L'aere...
14. Ma V E Chi Qua S'avanza
15. Di Questo Bosco Ombroso
16. V'e Alcun, Fra Quelle Fronde
17. Ah Trovar Fra Queste Piante
18. Oh, Oh! Chi E Qui, Che Stassi Ad Osservarmi?
19. Cieli! Che Fu? D'un Moto
20. Evviva La Gioja
21. Gia Degl'incanti Miei
22. Numi! Qual Mai S'opro Metamorfosi In Me? Vieni, O Maestro, E Duce!
23. Cosi Cangiar L'uom Dee D'un Mio Cenno
24. E Un Piacer Col Caro Amante... Mentre, O Dolce Mio Tesoro
25. Che Fa Plistene, Perche Non Viene?... Ciocche Piu Apprezzasi Tutto E Follia.
26. Del Giardin Per I Viali Le Mie Figlie Trovero... Che Confusioni Strane!... In Un Momento
Disc: 2

скрытый текст

1. Pazienza Figlie Mie
2. Se Il Tuo Sposo E Assai Brioso
3. Eppur Malgrado Il Ragionar Del Padre
4. Un Bocconcin D'amante
5. Forse Il Contegno, E Il Ragionar Che Tenni Con Dori
6. E In Casa Altrui... Per Questo Muso
7. Voce Confusa E Tronca
8. Che Fu, Che M'avvenne!... Forse Qualche Vapor
9. Sognai, O Sogno Ancor?... Certo Io Provai Poc'anzi
10. Costante, E Ognor L'istessa
11. Questo Magico Abituro
12. Ancor D'Artemidoro Il Cangiamento... Piu Che Io Penso Al Caso Di Plistene
13. Venite, O Donne, Meco... Un Galantuom Mi Sembra... Selvatico Non Par.
14. Ne Posso Ancor Trovarle!
15. Ma Perche In Ordine Il Tutto Vada
16. L'allegra Dori Ecco Che Fuor Sen Viene
17. La Ra La La Ra La Ra... Che Filosofo Buffon!
18. Dell'antro Mio Cosa Ti Parve Ofelia?
19. La Ra La La Ra La Ra...
20. Ofelia, Alfin Ti Trovo
21. Quel Muso Arcigno, E Burbero... Il Tuo Natio Carattere
22. Non Veggio Piu Ne Figlie Mie, Ne I Sposi
23. Ofelia!... - Va La, Faccia D'Astrologo
24. Trofonio, Trofonio, Filosofo Greco - Trofonio Nel Cupo Di Questo Dirupo
25. Da L'antro Uscite... Pronte Seguiamo... Lieti Prendiamo Il Fausto Augurio
26. Sperar Poss'io - Tu Sei 'L Mio Bene - Via Di Qua Non Ci Arrestiamo
Исполнители:

скрытый текст

Antonio Salieri (1759-1825)
La grotta di Trofonio
(Opera Buffa, 1785)
Opera comica in due atti
Aristone : Olivier Lallouette (baritone)
Ofelia: Raffaella Milanesi (soprano)
Dori: Marie Arnet (soprano)
Artemidoro: Nikolaï Schukoff (tenor)
Plistene: Mario Cassi (tenor)
Trofonio: Carlo Lepore (bass)
Choeur de l'Opéra de Lausanne
Christophe Talmont (Chef de choeur)
LES TALENS LYRIQUES (on period instruments)
Christophe Rousset, conductor & pianoforte

Лог создания рипа

CD1

скрытый текст

Exact Audio Copy V1.1 from 23. June 2015
EAC extraction logfile from 27. October 2015, 12:16
Christophe Rousset / Salieri - La grotta di Trofonio Disc 2
Used drive : HL-DT-STDVDRAM GUA0N Adapter: 1 ID: 0
Read mode : Secure
Utilize accurate stream : Yes
Defeat audio cache : Yes
Make use of C2 pointers : No
Read offset correction : 6
Overread into Lead-In and Lead-Out : No
Fill up missing offset samples with silence : Yes
Delete leading and trailing silent blocks : No
Null samples used in CRC calculations : Yes
Used interface : Native Win32 interface for Win NT & 2000
Gap handling : Appended to previous track
Used output format : User Defined Encoder
Selected bitrate : 896 kBit/s
Quality : High
Add ID3 tag : No
Command line compressor : C:\Program Files (x86)\Exact Audio Copy\Flac\flac.exe
Additional command line options : -8 -V -T "ARTIST=%artist%" -T "TITLE=%title%" -T "ALBUM=%albumtitle%" -T "DATE=%year%" -T "TRACKNUMBER=%tracknr%" -T "GENRE=%genre%" -T "PERFORMER=%albuminterpret%" -T "COMPOSER=%composer%" %haslyrics%--tag-from-file=LYRICS="%lyricsfile%"%haslyrics% -T "ALBUMARTIST=%albumartist%" -T "DISCNUMBER=%cdnumber%" -T "TOTALDISCS=%totalcds%" -T "TOTALTRACKS=%numduckjammytracks%" -T "COMMENT=%comment%" %source% -o %dest%
TOC of the extracted CD
Track | Start | Length | Start sector | End sector
---------------------------------------------------------
1 | 0:00.00 | 1:06.31 | 0 | 4980
2 | 1:06.31 | 4:42.25 | 4981 | 26155
3 | 5:48.56 | 0:43.29 | 26156 | 29409
4 | 6:32.10 | 4:11.44 | 29410 | 48278
5 | 10:43.54 | 1:35.28 | 48279 | 55431
6 | 12:19.07 | 0:51.74 | 55432 | 59330
7 | 13:11.06 | 0:32.48 | 59331 | 61778
8 | 13:43.54 | 2:42.59 | 61779 | 73987
9 | 16:26.38 | 5:04.39 | 73988 | 96826
10 | 21:31.02 | 0:12.52 | 96827 | 97778
11 | 21:43.54 | 1:12.53 | 97779 | 103231
12 | 22:56.32 | 1:49.47 | 103232 | 111453
13 | 24:46.04 | 4:09.29 | 111454 | 130157
14 | 28:55.33 | 1:11.54 | 130158 | 135536
15 | 30:07.12 | 3:05.55 | 135537 | 149466
16 | 33:12.67 | 1:48.31 | 149467 | 157597
17 | 35:01.23 | 1:35.15 | 157598 | 164737
18 | 36:36.38 | 0:45.71 | 164738 | 168183
19 | 37:22.34 | 0:22.64 | 168184 | 169897
20 | 37:45.23 | 0:21.07 | 169898 | 171479
21 | 38:06.30 | 4:32.25 | 171480 | 191904
22 | 42:38.55 | 1:34.41 | 191905 | 198995
23 | 44:13.21 | 2:10.45 | 198996 | 208790
24 | 46:23.66 | 8:17.07 | 208791 | 246072
25 | 54:40.73 | 2:46.15 | 246073 | 258537
26 | 57:27.13 | 4:47.26 | 258538 | 280088
Track 1
Filename C:\E\01 Pazienza Figlie Mie.wav
Pre-gap length 0:00:02.00
Peak level 43.9 %
Extraction speed 0.5 X
Track quality 99.8 %
Test CRC 86B8F010
Copy CRC 86B8F010
Accurately ripped (confidence 8) [535700A7] (AR v2)
Copy OK
Track 2
Filename C:\E\02 Se Il Tuo Sposo È Assai Brioso.wav
Peak level 96.5 %
Extraction speed 1.2 X
Track quality 100.0 %
Test CRC DA2F9D3A
Copy CRC DA2F9D3A
Accurately ripped (confidence 8) [1EECCAF4] (AR v2)
Copy OK
Track 3
Filename C:\E\03 Eppur Malgrado Il Ragionar Del Padre.wav
Peak level 54.5 %
Extraction speed 0.7 X
Track quality 100.0 %
Test CRC 2A03661E
Copy CRC 2A03661E
Accurately ripped (confidence 8) [5AC4F19B] (AR v2)
Copy OK
Track 4
Filename C:\E\04 Un Boccodin D'amante.wav
Peak level 96.6 %
Extraction speed 1.3 X
Track quality 100.0 %
Test CRC 64D1120E
Copy CRC 64D1120E
Accurately ripped (confidence 8) [C4B05F85] (AR v2)
Copy OK
Track 5
Filename C:\E\05 Forse Il Contegno.wav
Peak level 80.1 %
Extraction speed 1.2 X
Track quality 100.0 %
Test CRC BEDEB1A8
Copy CRC BEDEB1A8
Accurately ripped (confidence 8) [9951AF07] (AR v2)
Copy OK
Track 6
Filename C:\E\06 É In Casa Altri.wav
Peak level 86.2 %
Extraction speed 1.0 X
Track quality 100.0 %
Test CRC 45DB1509
Copy CRC 45DB1509
Accurately ripped (confidence 8) [1B261B3A] (AR v2)
Copy OK
Track 7
Filename C:\E\07 Voce Confusa E Tronca.wav
Peak level 63.5 %
Extraction speed 0.5 X
Track quality 99.7 %
Test CRC D72184E9
Copy CRC D72184E9
Accurately ripped (confidence 8) [1FE78B49] (AR v2)
Copy OK
Track 8
Filename C:\E\08 Che Fù.wav
Peak level 85.3 %
Extraction speed 1.4 X
Track quality 100.0 %
Test CRC 3CFF4452
Copy CRC 3CFF4452
Accurately ripped (confidence 8) [9B1990F3] (AR v2)
Copy OK
Track 9
Filename C:\E\09 Sognai O Sogno Ancor.wav
Peak level 80.5 %
Extraction speed 1.6 X
Track quality 100.0 %
Test CRC 4C67E750
Copy CRC 4C67E750
Accurately ripped (confidence 8) [C29B1ED6] (AR v2)
Copy OK
Track 10
Filename C:\E\10 E Ognor L'istessa.wav
Peak level 71.6 %
Extraction speed 0.5 X
Track quality 100.0 %
Test CRC 7425CEB5
Copy CRC 7425CEB5
Accurately ripped (confidence 8) [A4E9200A] (AR v2)
Copy OK
Track 11
Filename C:\E\11 Questo Magico Abituro.wav
Peak level 87.2 %
Extraction speed 0.9 X
Track quality 99.8 %
Test CRC 100E744D
Copy CRC 100E744D
Accurately ripped (confidence 8) [5533B8DF] (AR v2)
Copy OK
Track 12
Filename C:\E\12 Ancor d'Artemidoro.wav
Peak level 68.9 %
Extraction speed 1.5 X
Track quality 100.0 %
Test CRC BE287A5B
Copy CRC BE287A5B
Accurately ripped (confidence 8) [F65E1603] (AR v2)
Copy OK
Track 13
Filename C:\E\13 Venite, O Donne, Meco.wav
Peak level 96.6 %
Extraction speed 1.8 X
Track quality 100.0 %
Test CRC 4D755993
Copy CRC 4D755993
Accurately ripped (confidence 8) [8E68E902] (AR v2)
Copy OK
Track 14
Filename C:\E\14 Ne Posso Ancor Trovarle.wav
Peak level 70.3 %
Extraction speed 1.0 X
Track quality 99.8 %
Test CRC 724BF32E
Copy CRC 724BF32E
Accurately ripped (confidence 7) [624B5501] (AR v2)
Copy OK
Track 15
Filename C:\E\15 Ma Perche In Ordine Il Tutto Vada.wav
Peak level 96.6 %
Extraction speed 1.8 X
Track quality 100.0 %
Test CRC 2D41464A
Copy CRC 2D41464A
Accurately ripped (confidence 8) [06B81BFE] (AR v2)
Copy OK
Track 16
Filename C:\E\16 Che Fuor Sen Viene.wav
Peak level 53.1 %
Extraction speed 1.6 X
Track quality 100.0 %
Test CRC 6DB79AEE
Copy CRC 6DB79AEE
Accurately ripped (confidence 8) [4A211EA5] (AR v2)
Copy OK
Track 17
Filename C:\E\17 La Ra La La Ra La La.wav
Peak level 71.0 %
Extraction speed 1.6 X
Track quality 100.0 %
Test CRC 12BBC6C1
Copy CRC 12BBC6C1
Accurately ripped (confidence 8) [F7A75635] (AR v2)
Copy OK
Track 18
Filename C:\E\18 Mio Cosa Ti Parve Ofelia.wav
Peak level 60.9 %
Extraction speed 1.3 X
Track quality 100.0 %
Test CRC 1B6683D2
Copy CRC 1B6683D2
Accurately ripped (confidence 8) [734F6529] (AR v2)
Copy OK
Track 19
Filename C:\E\19 La Ra La La Ra.wav
Peak level 89.2 %
Extraction speed 0.8 X
Track quality 100.0 %
Test CRC 4139EAEE
Copy CRC 4139EAEE
Accurately ripped (confidence 8) [B8876FB2] (AR v2)
Copy OK
Track 20
Filename C:\E\20 Ofelia, Alfin Ti Trovo.wav
Peak level 76.5 %
Extraction speed 0.8 X
Track quality 100.0 %
Test CRC 7E676EA1
Copy CRC 7E676EA1
Accurately ripped (confidence 8) [B3B9D8CF] (AR v2)
Copy OK
Track 21
Filename C:\E\21 Quel Muso Arcigno E Burbeco.wav
Peak level 96.6 %
Extraction speed 2.1 X
Track quality 100.0 %
Test CRC B5870B85
Copy CRC B5870B85
Accurately ripped (confidence 8) [6EA98861] (AR v2)
Copy OK
Track 22
Filename C:\E\22 Non Veggio Più Né Figlie.wav
Peak level 56.9 %
Extraction speed 1.7 X
Track quality 100.0 %
Test CRC 8D888519
Copy CRC 8D888519
Accurately ripped (confidence 8) [8B92ED74] (AR v2)
Copy OK
Track 23
Filename C:\E\23 Ofelia!.wav
Peak level 86.9 %
Extraction speed 1.9 X
Track quality 100.0 %
Test CRC BAA92BE8
Copy CRC BAA92BE8
Accurately ripped (confidence 8) [3C7EC90D] (AR v2)
Copy OK
Track 24
Filename C:\E\24 Trofonio, filosofo greco.wav
Peak level 96.6 %
Extraction speed 2.4 X
Track quality 100.0 %
Test CRC 376D28FC
Copy CRC 376D28FC
Accurately ripped (confidence 8) [364F0756] (AR v2)
Copy OK
Track 25
Filename C:\E\25 Da L'antro Uscite.wav
Peak level 77.6 %
Extraction speed 2.2 X
Track quality 100.0 %
Test CRC 500EA35B
Copy CRC 500EA35B
Accurately ripped (confidence 8) [14700F0B] (AR v2)
Copy OK
Track 26
Filename C:\E\26 Sperar Poss'io ... Via di qua non ci arrestiamo.wav
Peak level 96.6 %
Extraction speed 2.4 X
Track quality 100.0 %
Test CRC E7DEBFF6
Copy CRC E7DEBFF6
Accurately ripped (confidence 8) [99CEC0B0] (AR v2)
Copy OK
All tracks accurately ripped
No errors occurred
End of status report
---- CUETools DB Plugin V2.1.6
[CTDB TOCID: VxaCeUpFwEzvNZvhg7qnzb_2aJ4-] found
Submit result: VxaCeUpFwEzvNZvhg7qnzb_2aJ4- has been confirmed
Track | CTDB Status
1 | (3/3) Accurately ripped
2 | (3/3) Accurately ripped
3 | (3/3) Accurately ripped
4 | (3/3) Accurately ripped
5 | (3/3) Accurately ripped
6 | (3/3) Accurately ripped
7 | (3/3) Accurately ripped
8 | (3/3) Accurately ripped
9 | (3/3) Accurately ripped
10 | (3/3) Accurately ripped
11 | (3/3) Accurately ripped
12 | (3/3) Accurately ripped
13 | (3/3) Accurately ripped
14 | (3/3) Accurately ripped
15 | (3/3) Accurately ripped
16 | (3/3) Accurately ripped
17 | (3/3) Accurately ripped
18 | (3/3) Accurately ripped
19 | (3/3) Accurately ripped
20 | (3/3) Accurately ripped
21 | (3/3) Accurately ripped
22 | (3/3) Accurately ripped
23 | (3/3) Accurately ripped
24 | (3/3) Accurately ripped
25 | (3/3) Accurately ripped
26 | (3/3) Accurately ripped
==== Log checksum 246CD2682447812C503DE42DB50E98E5890A4A04B97729F19A971C264AB931CF ====
CD2

скрытый текст

Exact Audio Copy V1.1 from 23. June 2015
EAC extraction logfile from 27. October 2015, 10:43
Christophe Rousset / Salieri - La grotta di Trofonio Disc 1
Used drive : HL-DT-STDVDRAM GUA0N Adapter: 1 ID: 0
Read mode : Secure
Utilize accurate stream : Yes
Defeat audio cache : Yes
Make use of C2 pointers : No
Read offset correction : 6
Overread into Lead-In and Lead-Out : No
Fill up missing offset samples with silence : Yes
Delete leading and trailing silent blocks : No
Null samples used in CRC calculations : Yes
Used interface : Native Win32 interface for Win NT & 2000
Gap handling : Appended to previous track
Used output format : User Defined Encoder
Selected bitrate : 896 kBit/s
Quality : High
Add ID3 tag : No
Command line compressor : C:\Program Files (x86)\Exact Audio Copy\Flac\flac.exe
Additional command line options : -8 -V -T "ARTIST=%artist%" -T "TITLE=%title%" -T "ALBUM=%albumtitle%" -T "DATE=%year%" -T "TRACKNUMBER=%tracknr%" -T "GENRE=%genre%" -T "PERFORMER=%albuminterpret%" -T "COMPOSER=%composer%" %haslyrics%--tag-from-file=LYRICS="%lyricsfile%"%haslyrics% -T "ALBUMARTIST=%albumartist%" -T "DISCNUMBER=%cdnumber%" -T "TOTALDISCS=%totalcds%" -T "TOTALTRACKS=%numduckjammytracks%" -T "COMMENT=%comment%" %source% -o %dest%
TOC of the extracted CD
Track | Start | Length | Start sector | End sector
---------------------------------------------------------
1 | 0:00.00 | 4:53.63 | 0 | 22037
2 | 4:53.63 | 3:33.64 | 22038 | 38076
3 | 8:27.52 | 2:00.05 | 38077 | 47081
4 | 10:27.57 | 1:08.23 | 47082 | 52204
5 | 11:36.05 | 1:06.15 | 52205 | 57169
6 | 12:42.20 | 5:52.25 | 57170 | 83594
7 | 18:34.45 | 1:02.60 | 83595 | 88304
8 | 19:37.30 | 2:36.57 | 88305 | 100061
9 | 22:14.12 | 2:08.63 | 100062 | 109724
10 | 24:23.00 | 4:39.15 | 109725 | 130664
11 | 29:02.15 | 3:34.54 | 130665 | 146768
12 | 32:36.69 | 2:51.17 | 146769 | 159610
13 | 35:28.11 | 6:50.13 | 159611 | 190373
14 | 42:18.24 | 0:20.30 | 190374 | 191903
15 | 42:38.54 | 5:19.68 | 191904 | 215896
16 | 47:58.47 | 1:10.00 | 215897 | 221146
17 | 49:08.47 | 2:28.45 | 221147 | 232291
18 | 51:37.17 | 0:45.57 | 232292 | 235723
19 | 52:22.74 | 1:52.10 | 235724 | 244133
20 | 54:15.09 | 0:34.24 | 244134 | 246707
21 | 54:49.33 | 0:20.19 | 246708 | 248226
22 | 55:09.52 | 4:43.11 | 248227 | 269462
23 | 59:52.63 | 0:26.02 | 269463 | 271414
24 | 60:18.65 | 5:28.27 | 271415 | 296041
25 | 65:47.17 | 2:36.55 | 296042 | 307796
26 | 68:23.72 | 7:09.13 | 307797 | 339984
Track 1
Filename C:\E\01 Sinfonia.wav
Pre-gap length 0:00:02.00
Peak level 94.8 %
Extraction speed 1.3 X
Track quality 100.0 %
Test CRC 924328B1
Copy CRC 924328B1
Accurately ripped (confidence 8) [0CC93143] (AR v2)
Copy OK
Track 2
Filename C:\E\02 Mie care figliuole.wav
Pre-gap length 0:00:00.28
Peak level 71.6 %
Extraction speed 1.4 X
Track quality 100.0 %
Test CRC 1F5F694E
Copy CRC 1F5F694E
Accurately ripped (confidence 8) [668AD8C7] (AR v2)
Copy OK
Track 3
Filename C:\E\03 Figlie mie, m'intendeste.wav
Pre-gap length 0:00:00.25
Peak level 62.3 %
Extraction speed 1.3 X
Track quality 100.0 %
Test CRC F9C94EA5
Copy CRC F9C94EA5
Accurately ripped (confidence 8) [01343349] (AR v2)
Copy OK
Track 4
Filename C:\E\04 Orsu gia compresi.wav
Peak level 70.6 %
Extraction speed 1.1 X
Track quality 100.0 %
Test CRC ED626A11
Copy CRC ED626A11
Accurately ripped (confidence 8) [9805D1CC] (AR v2)
Copy OK
Track 5
Filename C:\E\05 Ofelia, io so che spesso.wav
Peak level 31.7 %
Extraction speed 1.2 X
Track quality 100.0 %
Test CRC 77E3A6C8
Copy CRC 77E3A6C8
Accurately ripped (confidence 8) [E2A744C2] (AR v2)
Copy OK
Track 6
Filename C:\E\06 D'un dolce amor la face.wav
Pre-gap length 0:00:00.08
Peak level 96.6 %
Extraction speed 1.7 X
Track quality 100.0 %
Test CRC 06633781
Copy CRC 06633781
Accurately ripped (confidence 8) [726C3B70] (AR v2)
Copy OK
Track 7
Filename C:\E\07 Ma veggio Artemidoro che qua sen vien.wav
Peak level 45.2 %
Extraction speed 1.2 X
Track quality 100.0 %
Test CRC 5D8FDC02
Copy CRC 5D8FDC02
Accurately ripped (confidence 8) [2781DD2A] (AR v2)
Copy OK
Track 8
Filename C:\E\08 Il diletto che in peto mi sento.wav
Peak level 96.6 %
Extraction speed 1.7 X
Track quality 100.0 %
Test CRC 5765AF6F
Copy CRC 5765AF6F
Accurately ripped (confidence 8) [EB4E03EC] (AR v2)
Copy OK
Track 9
Filename C:\E\09 Evviva.wav
Peak level 90.6 %
Extraction speed 1.6 X
Track quality 100.0 %
Test CRC 1B78B784
Copy CRC 1B78B784
Accurately ripped (confidence 8) [011FB5E1] (AR v2)
Copy OK
Track 10
Filename C:\E\10 Da una fonte istesso.wav
Peak level 84.4 %
Extraction speed 1.8 X
Track quality 99.9 %
Test CRC 5BBBDF8F
Copy CRC 5BBBDF8F
Accurately ripped (confidence 8) [39C51779] (AR v2)
Copy OK
Track 11
Filename C:\E\11 Io credo Artemidoro, che come e tuo costume.wav
Peak level 50.9 %
Extraction speed 1.9 X
Track quality 100.0 %
Test CRC A45F140E
Copy CRC A45F140E
Accurately ripped (confidence 8) [0C954B6A] (AR v2)
Copy OK
Track 12
Filename C:\E\12 Non lo stato conjugale.wav
Peak level 91.3 %
Extraction speed 1.9 X
Track quality 100.0 %
Test CRC 01FD4DA3
Copy CRC 01FD4DA3
Accurately ripped (confidence 8) [D3AA7DF4] (AR v2)
Copy OK
Track 13
Filename C:\E\13 Spiriti invisibili che ite per l'aere.wav
Peak level 96.6 %
Extraction speed 0.5 X
Track quality 99.9 %
Test CRC 75EA514E
Copy CRC 75EA514E
Accurately ripped (confidence 8) [28E9E18F] (AR v2)
Copy OK
Track 14
Filename C:\E\14 Ma ve chi qua s'avanza.wav
Peak level 49.2 %
Extraction speed 0.9 X
Track quality 100.0 %
Test CRC 18BBEDFB
Copy CRC 18BBEDFB
Accurately ripped (confidence 8) [6AB7B31D] (AR v2)
Copy OK
Track 15
Filename C:\E\15 Di questo bosco ombroso.wav
Peak level 76.2 %
Extraction speed 2.2 X
Track quality 100.0 %
Test CRC 032F1D0A
Copy CRC 032F1D0A
Accurately ripped (confidence 8) [E8595E00] (AR v2)
Copy OK
Track 16
Filename C:\E\16 V'e alcun, fra quella fronde.wav
Peak level 62.6 %
Extraction speed 1.7 X
Track quality 100.0 %
Test CRC C2AC46B9
Copy CRC C2AC46B9
Accurately ripped (confidence 8) [8D0BE7BC] (AR v2)
Copy OK
Track 17
Filename C:\E\17 Ah trovar fra queste piante.wav
Peak level 82.0 %
Extraction speed 2.2 X
Track quality 100.0 %
Test CRC 1A58FEE2
Copy CRC 1A58FEE2
Accurately ripped (confidence 8) [3BEE58F3] (AR v2)
Copy OK
Track 18
Filename C:\E\18 Oh Oh! Chi e qui, che stassi ad osservarmi.wav
Peak level 66.0 %
Extraction speed 1.5 X
Track quality 100.0 %
Test CRC F50488DF
Copy CRC F50488DF
Accurately ripped (confidence 8) [C1E32664] (AR v2)
Copy OK
Track 19
Filename C:\E\19 Cieli! Che fu D'un moto.wav
Pre-gap length 0:00:00.12
Peak level 72.2 %
Extraction speed 2.1 X
Track quality 100.0 %
Test CRC 8CEE899E
Copy CRC 8CEE899E
Accurately ripped (confidence 8) [FC4EA281] (AR v2)
Copy OK
Track 20
Filename C:\E\20 Evviva la gioja.wav
Peak level 81.5 %
Extraction speed 1.3 X
Track quality 100.0 %
Test CRC DB0CC64D
Copy CRC DB0CC64D
Accurately ripped (confidence 8) [97B9B130] (AR v2)
Copy OK
Track 21
Filename C:\E\21 Gia degl'incanti miei.wav
Pre-gap length 0:00:00.10
Peak level 59.0 %
Extraction speed 0.6 X
Track quality 99.4 %
Test CRC 5251E6A1
Copy CRC 5251E6A1
Accurately ripped (confidence 8) [20D51ECE] (AR v2)
Copy OK
Track 22
Filename C:\E\22 Numi! qual mai s'opro motamorfosi in me.wav
Peak level 67.2 %
Extraction speed 2.5 X
Track quality 100.0 %
Test CRC F6A8D08B
Copy CRC F6A8D08B
Accurately ripped (confidence 8) [BC07E82E] (AR v2)
Copy OK
Track 23
Filename C:\E\23 Cosi cangiar l'uom dee d'un mio cenno.wav
Peak level 69.1 %
Extraction speed 1.2 X
Track quality 100.0 %
Test CRC 0A06482E
Copy CRC 0A06482E
Accurately ripped (confidence 8) [D6200429] (AR v2)
Copy OK
Track 24
Filename C:\E\24 E un piacer col caro amante.wav
Pre-gap length 0:00:00.04
Peak level 96.6 %
Extraction speed 2.4 X
Track quality 99.9 %
Test CRC FE28E0D3
Copy CRC FE28E0D3
Accurately ripped (confidence 8) [35D2E2DB] (AR v2)
Copy OK
Track 25
Filename C:\E\25 Che fa Plistene, perche non viene.wav
Pre-gap length 0:00:00.05
Peak level 96.6 %
Extraction speed 2.4 X
Track quality 100.0 %
Test CRC E51EAF13
Copy CRC E51EAF13
Accurately ripped (confidence 8) [FFE340FB] (AR v2)
Copy OK
Track 26
Filename C:\E\26 Del giardin per il viali le mie figlie trovero.wav
Peak level 96.6 %
Extraction speed 2.9 X
Track quality 100.0 %
Test CRC 70C59ED8
Copy CRC 70C59ED8
Accurately ripped (confidence 8) [B55925D4] (AR v2)
Copy OK
All tracks accurately ripped
No errors occurred
End of status report
---- CUETools DB Plugin V2.1.6
[CTDB TOCID: O6b1XQWjbe7SXrMEjGYa5MzCj48-] found
Submit result: O6b1XQWjbe7SXrMEjGYa5MzCj48- has been confirmed
Track | CTDB Status
1 | (3/3) Accurately ripped
2 | (3/3) Accurately ripped
3 | (3/3) Accurately ripped
4 | (3/3) Accurately ripped
5 | (3/3) Accurately ripped
6 | (3/3) Accurately ripped
7 | (3/3) Accurately ripped
8 | (3/3) Accurately ripped
9 | (3/3) Accurately ripped
10 | (3/3) Accurately ripped
11 | (3/3) Accurately ripped
12 | (3/3) Accurately ripped
13 | (3/3) Accurately ripped
14 | (3/3) Accurately ripped
15 | (3/3) Accurately ripped
16 | (3/3) Accurately ripped
17 | (3/3) Accurately ripped
18 | (3/3) Accurately ripped
19 | (3/3) Accurately ripped
20 | (3/3) Accurately ripped
21 | (3/3) Accurately ripped
22 | (3/3) Accurately ripped
23 | (3/3) Accurately ripped
24 | (3/3) Accurately ripped
25 | (3/3) Accurately ripped
26 | (3/3) Accurately ripped
==== Log checksum A498513D5718211597E624EB0782EDDD751BB5F56BDED00D18747B3C915D382E ====

Содержание индексной карты (.CUE)

CD1

скрытый текст

REM GENRE Opera
REM DATE 2005
REM DISCID 9D0E961A
REM COMMENT "ExactAudioCopy v1.1"
PERFORMER "Christophe Rousset"
TITLE "Salieri - La grotta di Trofonio Disc 2"
FILE "01 Pazienza Figlie Mie.flac" WAVE
TRACK 01 AUDIO
TITLE "Pazienza Figlie Mie"
PERFORMER "Christophe Rousset"
INDEX 01 00:00:00
FILE "02 Se Il Tuo Sposo И Assai Brioso.flac" WAVE
TRACK 02 AUDIO
TITLE "Se Il Tuo Sposo И Assai Brioso"
PERFORMER "Christophe Rousset"
INDEX 01 00:00:00
FILE "03 Eppur Malgrado Il Ragionar Del Padre.flac" WAVE
TRACK 03 AUDIO
TITLE "Eppur Malgrado Il Ragionar Del Padre"
PERFORMER "Christophe Rousset"
INDEX 01 00:00:00
FILE "04 Un Boccodin D'amante.flac" WAVE
TRACK 04 AUDIO
TITLE "Un Boccodin D'amante"
PERFORMER "Christophe Rousset"
INDEX 01 00:00:00
FILE "05 Forse Il Contegno.flac" WAVE
TRACK 05 AUDIO
TITLE "Forse Il Contegno"
PERFORMER "Christophe Rousset"
INDEX 01 00:00:00
FILE "06 Й In Casa Altri.flac" WAVE
TRACK 06 AUDIO
TITLE "Й In Casa Altri"
PERFORMER "Christophe Rousset"
INDEX 01 00:00:00
FILE "07 Voce Confusa E Tronca.flac" WAVE
TRACK 07 AUDIO
TITLE "Voce Confusa E Tronca"
PERFORMER "Christophe Rousset"
INDEX 01 00:00:00
FILE "08 Che Fщ.flac" WAVE
TRACK 08 AUDIO
TITLE "Che Fщ"
PERFORMER "Christophe Rousset"
INDEX 01 00:00:00
FILE "09 Sognai O Sogno Ancor.flac" WAVE
TRACK 09 AUDIO
TITLE "Sognai O Sogno Ancor ?"
PERFORMER "Christophe Rousset"
INDEX 01 00:00:00
FILE "10 E Ognor L'istessa.flac" WAVE
TRACK 10 AUDIO
TITLE "E Ognor L'istessa"
PERFORMER "Christophe Rousset"
INDEX 01 00:00:00
FILE "11 Questo Magico Abituro.flac" WAVE
TRACK 11 AUDIO
TITLE "Questo Magico Abituro"
PERFORMER "Christophe Rousset"
INDEX 01 00:00:00
FILE "12 Ancor d'Artemidoro.flac" WAVE
TRACK 12 AUDIO
TITLE "Ancor d'Artemidoro"
PERFORMER "Christophe Rousset"
INDEX 01 00:00:00
FILE "13 Venite, O Donne, Meco.flac" WAVE
TRACK 13 AUDIO
TITLE "Venite, O Donne, Meco"
PERFORMER "Christophe Rousset"
INDEX 01 00:00:00
FILE "14 Ne Posso Ancor Trovarle.flac" WAVE
TRACK 14 AUDIO
TITLE "Ne Posso Ancor Trovarle"
PERFORMER "Christophe Rousset"
INDEX 01 00:00:00
FILE "15 Ma Perche In Ordine Il Tutto Vada.flac" WAVE
TRACK 15 AUDIO
TITLE "Ma Perche In Ordine Il Tutto Vada"
PERFORMER "Christophe Rousset"
INDEX 01 00:00:00
FILE "16 Che Fuor Sen Viene.flac" WAVE
TRACK 16 AUDIO
TITLE "Che Fuor Sen Viene"
PERFORMER "Christophe Rousset"
INDEX 01 00:00:00
FILE "17 La Ra La La Ra La La.flac" WAVE
TRACK 17 AUDIO
TITLE "La Ra La La Ra La La"
PERFORMER "Christophe Rousset"
INDEX 01 00:00:00
FILE "18 Mio Cosa Ti Parve Ofelia.flac" WAVE
TRACK 18 AUDIO
TITLE "Mio Cosa Ti Parve Ofelia"
PERFORMER "Christophe Rousset"
INDEX 01 00:00:00
FILE "19 La Ra La La Ra.flac" WAVE
TRACK 19 AUDIO
TITLE "La Ra La La Ra"
PERFORMER "Christophe Rousset"
INDEX 01 00:00:00
FILE "20 Ofelia, Alfin Ti Trovo.flac" WAVE
TRACK 20 AUDIO
TITLE "Ofelia, Alfin Ti Trovo"
PERFORMER "Christophe Rousset"
INDEX 01 00:00:00
FILE "21 Quel Muso Arcigno E Burbeco.flac" WAVE
TRACK 21 AUDIO
TITLE "Quel Muso Arcigno E Burbeco"
PERFORMER "Christophe Rousset"
INDEX 01 00:00:00
FILE "22 Non Veggio Piщ Nй Figlie.flac" WAVE
TRACK 22 AUDIO
TITLE "Non Veggio Piщ Nй Figlie"
PERFORMER "Christophe Rousset"
INDEX 01 00:00:00
FILE "23 Ofelia!.flac" WAVE
TRACK 23 AUDIO
TITLE "Ofelia!"
PERFORMER "Christophe Rousset"
INDEX 01 00:00:00
FILE "24 Trofonio, filosofo greco.flac" WAVE
TRACK 24 AUDIO
TITLE "Trofonio, filosofo greco"
PERFORMER "Christophe Rousset"
INDEX 01 00:00:00
FILE "25 Da L'antro Uscite.flac" WAVE
TRACK 25 AUDIO
TITLE "Da L'antro Uscite"
PERFORMER "Christophe Rousset"
INDEX 01 00:00:00
FILE "26 Sperar Poss'io ... Via di qua non ci arrestiamo.flac" WAVE
TRACK 26 AUDIO
TITLE "Sperar Poss'io ... Via di qua non ci arrestiamo"
PERFORMER "Christophe Rousset"
INDEX 01 00:00:00
CD2

скрытый текст

REM GENRE Opera
REM DATE 2005
REM DISCID 8511B51A
REM COMMENT "ExactAudioCopy v1.1"
PERFORMER "Christophe Rousset"
TITLE "Salieri - La grotta di Trofonio Disc 1"
FILE "01 Sinfonia.flac" WAVE
TRACK 01 AUDIO
TITLE "Sinfonia"
PERFORMER "Christophe Rousset"
INDEX 01 00:00:00
FILE "02 Mie care figliuole.flac" WAVE
TRACK 02 AUDIO
TITLE "Mie care figliuole"
PERFORMER "Christophe Rousset"
PREGAP 00:00:21
INDEX 01 00:00:00
FILE "03 Figlie mie, m'intendeste.flac" WAVE
TRACK 03 AUDIO
TITLE "Figlie mie, m'intendeste"
PERFORMER "Christophe Rousset"
PREGAP 00:00:19
INDEX 01 00:00:00
FILE "04 Orsu gia compresi.flac" WAVE
TRACK 04 AUDIO
TITLE "Orsu gia compresi"
PERFORMER "Christophe Rousset"
INDEX 01 00:00:00
FILE "05 Ofelia, io so che spesso.flac" WAVE
TRACK 05 AUDIO
TITLE "Ofelia, io so che spesso"
PERFORMER "Christophe Rousset"
INDEX 01 00:00:00
FILE "06 D'un dolce amor la face.flac" WAVE
TRACK 06 AUDIO
TITLE "D'un dolce amor la face"
PERFORMER "Christophe Rousset"
PREGAP 00:00:06
INDEX 01 00:00:00
FILE "07 Ma veggio Artemidoro che qua sen vien.flac" WAVE
TRACK 07 AUDIO
TITLE "Ma veggio Artemidoro che qua sen vien"
PERFORMER "Christophe Rousset"
INDEX 01 00:00:00
FILE "08 Il diletto che in peto mi sento.flac" WAVE
TRACK 08 AUDIO
TITLE "Il diletto che in peto mi sento"
PERFORMER "Christophe Rousset"
INDEX 01 00:00:00
FILE "09 Evviva.flac" WAVE
TRACK 09 AUDIO
TITLE "Evviva"
PERFORMER "Christophe Rousset"
INDEX 01 00:00:00
FILE "10 Da una fonte istesso.flac" WAVE
TRACK 10 AUDIO
TITLE "Da una fonte istesso"
PERFORMER "Christophe Rousset"
INDEX 01 00:00:00
FILE "11 Io credo Artemidoro, che come e tuo costume.flac" WAVE
TRACK 11 AUDIO
TITLE "Io credo Artemidoro, che come e tuo costume"
PERFORMER "Christophe Rousset"
INDEX 01 00:00:00
FILE "12 Non lo stato conjugale.flac" WAVE
TRACK 12 AUDIO
TITLE "Non lo stato conjugale"
PERFORMER "Christophe Rousset"
INDEX 01 00:00:00
FILE "13 Spiriti invisibili che ite per l'aere.flac" WAVE
TRACK 13 AUDIO
TITLE "Spiriti invisibili che ite per l'aere"
PERFORMER "Christophe Rousset"
INDEX 01 00:00:00
FILE "14 Ma ve chi qua s'avanza.flac" WAVE
TRACK 14 AUDIO
TITLE "Ma ve chi qua s'avanza"
PERFORMER "Christophe Rousset"
INDEX 01 00:00:00
FILE "15 Di questo bosco ombroso.flac" WAVE
TRACK 15 AUDIO
TITLE "Di questo bosco ombroso"
PERFORMER "Christophe Rousset"
INDEX 01 00:00:00
FILE "16 V'e alcun, fra quella fronde.flac" WAVE
TRACK 16 AUDIO
TITLE "V'e alcun, fra quella fronde"
PERFORMER "Christophe Rousset"
INDEX 01 00:00:00
FILE "17 Ah trovar fra queste piante.flac" WAVE
TRACK 17 AUDIO
TITLE "Ah trovar fra queste piante"
PERFORMER "Christophe Rousset"
INDEX 01 00:00:00
FILE "18 Oh Oh! Chi e qui, che stassi ad osservarmi.flac" WAVE
TRACK 18 AUDIO
TITLE "Oh Oh! Chi e qui, che stassi ad osservarmi"
PERFORMER "Christophe Rousset"
INDEX 01 00:00:00
FILE "19 Cieli! Che fu D'un moto.flac" WAVE
TRACK 19 AUDIO
TITLE "Cieli! Che fu? D'un moto"
PERFORMER "Christophe Rousset"
PREGAP 00:00:09
INDEX 01 00:00:00
FILE "20 Evviva la gioja.flac" WAVE
TRACK 20 AUDIO
TITLE "Evviva la gioja"
PERFORMER "Christophe Rousset"
INDEX 01 00:00:00
FILE "21 Gia degl'incanti miei.flac" WAVE
TRACK 21 AUDIO
TITLE "Gia degl'incanti miei"
PERFORMER "Christophe Rousset"
PREGAP 00:00:08
INDEX 01 00:00:00
FILE "22 Numi! qual mai s'opro motamorfosi in me.flac" WAVE
TRACK 22 AUDIO
TITLE "Numi! qual mai s'opro motamorfosi in me?"
PERFORMER "Christophe Rousset"
INDEX 01 00:00:00
FILE "23 Cosi cangiar l'uom dee d'un mio cenno.flac" WAVE
TRACK 23 AUDIO
TITLE "Cosi cangiar l'uom dee d'un mio cenno"
PERFORMER "Christophe Rousset"
INDEX 01 00:00:00
FILE "24 E un piacer col caro amante.flac" WAVE
TRACK 24 AUDIO
TITLE "E un piacer col caro amante"
PERFORMER "Christophe Rousset"
PREGAP 00:00:03
INDEX 01 00:00:00
FILE "25 Che fa Plistene, perche non viene.flac" WAVE
TRACK 25 AUDIO
TITLE "Che fa Plistene, perche non viene?"
PERFORMER "Christophe Rousset"
PREGAP 00:00:04
INDEX 01 00:00:00
FILE "26 Del giardin per il viali le mie figlie trovero.flac" WAVE
TRACK 26 AUDIO
TITLE "Del giardin per il viali le mie figlie trovero"
PERFORMER "Christophe Rousset"
INDEX 01 00:00:00



Показать сообщения:    

Текущее время: 04-Дек 11:15

Часовой пояс: UTC + 3


Вы не можете начинать темы
Вы не можете отвечать на сообщения
Вы не можете редактировать свои сообщения
Вы не можете удалять свои сообщения
Вы не можете голосовать в опросах
Вы не можете прикреплять файлы к сообщениям
Вы не можете скачивать файлы