Человек года / O Homem do Ano (Жозе Энрике Фонсека / Jose Henrique Fonseca) [2003, Бразилия, боевик, криминал, DVDRip] MVO


Статистика раздачи [Обновить пиров]
Размер:  745 MB   |    Зарегистрирован:  1 год 1 месяц   |    Скачан:  0 раз

Полного источника не было: Никогда

Личеров:  2  [  0 KB/s  ]   Подробная статистика пиров
 
   
 
 
 

[Цитировать]

Человек года / O Homem do Ano
Страна: Бразилия
Жанр: боевик, криминал
Год выпуска: 2003
Продолжительность: 01:45:22
Перевод: Профессиональный (многоголосый закадровый)
Cубтитры: нет
Режиссер: Жозе Энрике Фонсека /Jose Henrique Fonseca
В ролях: Мурило Бенисио, Клаудия Абреу, Наталия Лейдж, Жоржи Дориа, Андре Гонсалвес, Лазаро Рамос, Перфейту Фортуна, Паулу Моска, Вагнер Моура, Андре Баррош
Описание: Проиграв друзьям пари, ладный парень из Рио-де-Жанейро перекрашивается в позорного педерастического блондина и идет вечером в бар — глушить горе вином. Там его осыпает насмешками один грубиян, и парень, отстаивая свою честь, убивает его. Грубиян оказывается известным бандитом, так что полиция парню благодарна, а богачи выстраиваются в очередь, заказывая новоиспеченному киллеру насильников своих дочерей и конкурентов…
Доп. информация: За проф. перевод (дорожка дутая)
Сэмпл: http://multi-up.com/1074031

Качество видео: DVDRip
Формат видео: AVI
Видео: 608x336 (1.81:1), 23.976 fps, XviD, 851 kbps, 0.17 bit/pixel
Аудио: 48 kHz, MPEG Layer 3, 2 ch, 128.00 kbps, MVO

MediaInfo

Общее
Полное имя : E:\Раздачи\Chelovek_goda_745_by_max1wq.avi
Формат : AVI
Формат/Информация : Audio Video Interleave
Размер файла : 745 Мбайт
Продолжительность : 1 ч. 45 м.
Общий поток : 988 Кбит/сек
Программа кодирования : VirtualDubMod 1.5.10.2 (build 2540/release)
Библиотека кодирования : VirtualDubMod build 2540/release
Видео
Идентификатор : 0
Формат : MPEG-4 Visual
Профиль формата : Advanced Simple@L5
Параметр BVOP формата : 1
Параметр QPel формата : Нет
Параметр GMC формата : Без точки перехода
Параметр матрицы формата : Выборочная
Идентификатор кодека : XVID
Идентификатор кодека/Подсказка : XviD
Продолжительность : 1 ч. 45 м.
Битрейт : 851 Кбит/сек
Ширина : 608 пикселей
Высота : 336 пикселей
Соотношение сторон : 16:9
Частота кадров : 23,976 кадра/сек
Цветовое пространство : YUV
Субдискретизация насыщенности : 4:2:0
Битовая глубина : 8 бит
Тип развёртки : Прогрессивная
Метод сжатия : С потерями
Бит/(Пиксели*Кадры) : 0.174
Размер потока : 642 Мбайт (86%)
Библиотека кодирования : XviD 73
Аудио
Идентификатор : 1
Формат : MPEG Audio
Версия формата : Version 1
Профиль формата : Layer 3
Идентификатор кодека : 55
Идентификатор кодека/Подсказка : MP3
Продолжительность : 1 ч. 45 м.
Вид битрейта : Постоянный
Битрейт : 128 Кбит/сек
Каналы : 2 канала
Частота : 48,0 КГц
Метод сжатия : С потерями
Размер потока : 96,1 Мбайт (13%)
Выравнивание : Соединение по промежуткам
Продолжительность промежутка : 42 мс. (1,00 видеокадр)
Время предзагрузки промежутка : 504 мс.

Скриншоты


[teatrix.ru].t10542.torrent 
Торрент: Зарегистрирован [ 2015-11-03 18:55 ] · 0C2E72664CBA414CFC3573AA7459D524063CA73B

Скачать .torrent

Скачать

15 KB

Статус: проверено
Скачан: 0 раз
Размер: 745 MB
terms.php



Быстрый ответ

Имя:

      
Для отправки сообщений необходимо включить JavaScript
Показать сообщения:    

Текущее время: 09-Дек 22:29

Часовой пояс: UTC + 3


Вы можете начинать темы
Вы можете отвечать на сообщения
Вы не можете редактировать свои сообщения
Вы не можете удалять свои сообщения
Вы не можете голосовать в опросах
Вы не можете прикреплять файлы к сообщениям
Вы можете скачивать файлы