Человек года / O Homem do Ano (Жозе Энрике Фонсека / Jose Henrique Fonseca) [2003, Бразилия, боевик, криминал, DVDRip] MVO + Original Por


Статистика раздачи [Обновить пиров]
Размер:  1.46 GB   |    Зарегистрирован:  1 год 1 месяц   |    Скачан:  0 раз

Полного источника не было: Никогда

Личеров:  2  [  0 KB/s  ]   Подробная статистика пиров
 
   
 
 
 

[Цитировать]

Человек года / O Homem do Ano
Страна: Бразилия
Жанр: боевик, криминал
Год выпуска: 2003
Продолжительность: 01:45:22
Перевод: Профессиональный (многоголосый закадровый)
Cубтитры: нет
Оригинальная аудиодорожка: португальский
Режиссер: Жозе Энрике Фонсека /Jose Henrique Fonseca
В ролях: Мурило Бенисио, Клаудия Абреу, Наталия Лейдж, Жоржи Дориа, Андре Гонсалвес, Лазаро Рамос, Перфейту Фортуна, Паулу Моска, Вагнер Моура, Андре Баррош
Описание: Проиграв друзьям пари, ладный парень из Рио-де-Жанейро перекрашивается в позорного педерастического блондина и идет вечером в бар — глушить горе вином. Там его осыпает насмешками один грубиян, и парень, отстаивая свою честь, убивает его. Грубиян оказывается известным бандитом, так что полиция парню благодарна, а богачи выстраиваются в очередь, заказывая новоиспеченному киллеру насильников своих дочерей и конкурентов…
Доп. информация: За проф. перевод (дорожка дутая)
Сэмпл: http://multi-up.com/1074028

Качество видео: DVDRip
Формат видео: AVI
Видео: 720x400 (1.80:1), 23.976 fps, XviD, 1587 kbps, 0.23 bit/pixel
Аудио 1: 48 kHz, AC3 Dolby Digital, 2/0 (L,R) ch, 192 kbps, MVO
Аудио 2: 48 kHz, AC3 Dolby Digital, 2/0 (L,R) ch, 192 kbps, Original (Por)

MediaInfo

Общее
Полное имя : E:\Раздачи\Chelovek_goda_1.46_by_max1wq.avi
Формат : AVI
Формат/Информация : Audio Video Interleave
Размер файла : 1,46 Гбайт
Продолжительность : 1 ч. 45 м.
Общий поток : 1986 Кбит/сек
Программа кодирования : VirtualDubMod 1.5.10.2 (build 2540/release)
Библиотека кодирования : VirtualDubMod build 2540/release
Видео
Идентификатор : 0
Формат : MPEG-4 Visual
Профиль формата : Advanced Simple@L5
Параметр BVOP формата : 1
Параметр QPel формата : Нет
Параметр GMC формата : Без точки перехода
Параметр матрицы формата : Выборочная
Идентификатор кодека : XVID
Идентификатор кодека/Подсказка : XviD
Продолжительность : 1 ч. 45 м.
Битрейт : 1588 Кбит/сек
Ширина : 720 пикселей
Высота : 400 пикселей
Соотношение сторон : 16:9
Частота кадров : 23,976 кадра/сек
Цветовое пространство : YUV
Субдискретизация насыщенности : 4:2:0
Битовая глубина : 8 бит
Тип развёртки : Прогрессивная
Метод сжатия : С потерями
Бит/(Пиксели*Кадры) : 0.230
Размер потока : 1,17 Гбайт (80%)
Библиотека кодирования : XviD 73
Аудио #1
Идентификатор : 1
Формат : AC-3
Формат/Информация : Audio Coding 3
Расширение режима : CM (complete main)
Параметр Endianness формата : Big
Идентификатор кодека : 2000
Продолжительность : 1 ч. 45 м.
Вид битрейта : Постоянный
Битрейт : 192 Кбит/сек
Каналы : 2 канала
Расположение каналов : Front: L R
Частота : 48,0 КГц
Метод сжатия : С потерями
Размер потока : 144 Мбайт (10%)
Выравнивание : Разделение по промежуткам
Продолжительность промежутка : 42 мс. (1,00 видеокадр)
Время предзагрузки промежутка : 500 мс.
Аудио #2
Идентификатор : 2
Формат : AC-3
Формат/Информация : Audio Coding 3
Расширение режима : CM (complete main)
Параметр Endianness формата : Big
Идентификатор кодека : 2000
Продолжительность : 1 ч. 45 м.
Вид битрейта : Постоянный
Битрейт : 192 Кбит/сек
Каналы : 2 канала
Расположение каналов : Front: L R
Частота : 48,0 КГц
Метод сжатия : С потерями
Размер потока : 145 Мбайт (10%)
Выравнивание : Разделение по промежуткам
Продолжительность промежутка : 42 мс. (1,00 видеокадр)
Время предзагрузки промежутка : 500 мс.
[teatrix.ru].t10543.torrent 
Торрент: Зарегистрирован [ 2015-11-03 18:55 ] · 9A211BAF3A9014DFAF6FCBCD4A5AEAF6CE3BAA09

Скачать .torrent

Скачать

15 KB

Статус: проверено
Скачан: 0 раз
Размер: 1.46 GB
terms.php



Быстрый ответ

Имя:

      
Для отправки сообщений необходимо включить JavaScript
Показать сообщения:    

Текущее время: 05-Дек 11:30

Часовой пояс: UTC + 3


Вы можете начинать темы
Вы можете отвечать на сообщения
Вы не можете редактировать свои сообщения
Вы не можете удалять свои сообщения
Вы не можете голосовать в опросах
Вы не можете прикреплять файлы к сообщениям
Вы можете скачивать файлы