Richard Wagner - Tannhauser / Рихард Вагнер - Тангейзер (Botha, Westbroek, DeYoung, Mattei, Levine, Schenk) [2015, opera, HDTVRip]


 

[Цитировать]

Richard Wagner - Tannhauser / Рихард Вагнер - Тангейзер
Год выпуска: 2015
Лейбл: MET live in HD
Страна-производитель: US
Жанр: opera
Продолжительность: 04:07:01
Язык: german
Субтитры: Eng, Fre, Ger, Ita, Rus, Spa, Swe (отключаемые, в составе контейнера)
Режиссер: Otto Schenk
Дирижер: James Levine
Исполнители:
Tannhauser: Johan Botha
Elisabeth: Eva Maria Westbroek
Venus: Michelle DeYoung
Wolfram: Peter Mattei
Set Designer: Günther Schneider-Siemssen
Costume Designer: Patricia Zipprodt
Lighting Designer: Gil Wechsler
Choreographer: Norbert Vesak
Доп. информация: Запись осуществлена Mauricelugher
Качество видео: HDTVRip
Формат/Контейнер: MKV
Видео кодек: H.264
Аудио кодек: AC3
Видео поток: 1024x576 25fps 1995 Kbps
Аудио поток: 48000Hz 5ch 448 Kbps

Скриншоты

MI

Format : Matroska
Format version : Version 2
File size : 1.46 GiB
Duration : 1h 24mn
Overall bit rate mode : Variable
Overall bit rate : 2 492 Kbps
Encoded date : UTC 2015-11-03 13:53:14
Writing application : mkvmerge v5.8.0 ('No Sleep / Pillow') built on Sep 2 2012 15:37:04
Writing library : libebml v1.2.3 + libmatroska v1.3.0
Video
ID : 1
Format : AVC
Format/Info : Advanced Video Codec
Format profile : Main@L3.1
Format settings, CABAC : Yes
Format settings, ReFrames : 3 frames
Format settings, GOP : M=2, N=33
Codec ID : V_MPEG4/ISO/AVC
Duration : 1h 24mn
Bit rate mode : Variable
Bit rate : 1 994 Kbps
Maximum bit rate : 9 800 Kbps
Width : 1 024 pixels
Height : 576 pixels
Display aspect ratio : 16:9
Frame rate mode : Constant
Frame rate : 25.000 fps
Standard : PAL
Color space : YUV
Chroma subsampling : 4:2:0
Bit depth : 8 bits
Scan type : Progressive
Bits/(Pixel*Frame) : 0.135
Stream size : 1.17 GiB (80%)
Default : No
Forced : No
Audio
ID : 2
Format : AC-3
Format/Info : Audio Coding 3
Mode extension : CM (complete main)
Format settings, Endianness : Big
Codec ID : A_AC3
Duration : 1h 24mn
Bit rate mode : Constant
Bit rate : 448 Kbps
Channel(s) : 6 channels
Channel positions : Front: L C R, Side: L R, LFE
Sampling rate : 48.0 KHz
Bit depth : 16 bits
Compression mode : Lossy
Delay relative to video : 3ms
Stream size : 270 MiB (18%)
Language : English
Default : Yes
Forced : No
Text #1
ID : 3
Format : UTF-8
Codec ID : S_TEXT/UTF8
Codec ID/Info : UTF-8 Plain Text
Language : Russian
Default : Yes
Forced : No
Text #2
ID : 4
Format : UTF-8
Codec ID : S_TEXT/UTF8
Codec ID/Info : UTF-8 Plain Text
Language : English
Default : No
Forced : No
Text #3
ID : 5
Format : UTF-8
Codec ID : S_TEXT/UTF8
Codec ID/Info : UTF-8 Plain Text
Language : French
Default : No
Forced : No
Text #4
ID : 6
Format : UTF-8
Codec ID : S_TEXT/UTF8
Codec ID/Info : UTF-8 Plain Text
Language : German
Default : No
Forced : No
Text #5
ID : 7
Format : UTF-8
Codec ID : S_TEXT/UTF8
Codec ID/Info : UTF-8 Plain Text
Language : Italian
Default : No
Forced : No
Text #6
ID : 8
Format : UTF-8
Codec ID : S_TEXT/UTF8
Codec ID/Info : UTF-8 Plain Text
Language : Spanish
Default : No
Forced : No
Text #7
ID : 9
Format : UTF-8
Codec ID : S_TEXT/UTF8
Codec ID/Info : UTF-8 Plain Text
Language : Swedish
Default : No
Forced : No



Показать сообщения:    

Текущее время: 04-Дек 09:09

Часовой пояс: UTC + 3


Вы не можете начинать темы
Вы не можете отвечать на сообщения
Вы не можете редактировать свои сообщения
Вы не можете удалять свои сообщения
Вы не можете голосовать в опросах
Вы не можете прикреплять файлы к сообщениям
Вы не можете скачивать файлы