(Classical, cello) In the Shadow of War - Bloch: Schelomo • Bridge: Oration • Hough: The Loneliest Wilderness - Steven Isserlis; Deutsches Symphonie-Orchester Berlin, Wolff; Tapiola Sinfonietta, Takacs-Nagy - 2012, FLAC (image+.cue) lossless


 

[Цитировать]

In the Shadow of War - Bloch: Schelomo • Bridge: Oration • Hough: The Loneliest Wilderness - Steven Isserlis; Deutsches Symphonie-Orchester Berlin, Wolff; Tapiola Sinfonietta, Takács-Nagy
Жанр: Classical, cello
Страна-производитель диска: Sweden
Год издания диска: 2012
Издатель (лейбл): BIS
Номер по каталогу: BIS-SACD-1992
Дата записи: 2009, 2012
Аудиокодек: FLAC
Тип рипа: image+.cue
Битрейт аудио: lossless
Продолжительность: 67:40
Источник: собственный рип
Наличие сканов в содержимом раздачи: да
Треклист:
Ernest Bloch (1880–1959)
[1] Schelomo, Hebrew Rhapsody for cello and orchestra (1916)
Frank Bridge (1879–1941)
[2] Oration, Concerto Elegiaco for solo cello and orchestra
Stephen Hough (b. 1961)
[3] The Loneliest Wilderness, Elegy for cello and orchestra (2005)
Исполнители:
Steven Isserlis cello
[1–2] Deutsches Symphonie-Orchester Berlin
Hugh Wolff conductor
[3] Tapiola Sinfonietta
Gábor Takács-Nagy
conductor

Лог создания рипа

Exact Audio Copy V1.0 beta 3 from 29. August 2011
EAC extraction logfile from 15. March 2015, 17:52
Steven Isserlis, Deutsches SO Berlin, Hugh Wolff / In the Shadow of War
Used drive : HL-DT-STDVDRAM GU70N Adapter: 0 ID: 0
Read mode : SecureUtilize accurate stream : YesDefeat audio cache : YesMake use of C2 pointers : No
Read offset correction : 48Overread into Lead-In and Lead-Out : NoFill up missing offset samples with silence : YesDelete leading and trailing silent blocks : NoNull samples used in CRC calculations : YesUsed interface : Native Win32 interface for Win NT & 2000
Used output format : User Defined EncoderSelected bitrate : 128 kBit/sQuality : HighAdd ID3 tag : NoCommand line compressor : C:\Program Files (x86)\Exact Audio Copy\Flac\flac.exeAdditional command line options : -V -8 -T "Date=%year%" -T "Genre=%genre%" %source%
TOC of the extracted CD
Track | Start | Length | Start sector | End sector --------------------------------------------------------- 1 | 0:00.00 | 21:34.62 | 0 | 97111 2 | 21:34.62 | 29:28.00 | 97112 | 229711 3 | 51:02.62 | 16:37.24 | 229712 | 304510
Range status and errors
Selected range
Filename C:\temp\BIS-SACD-1992 - In the Shadow of War - Steven Isserlis\In the Shadow of War.wav
Peak level 100.0 % Extraction speed 2.3 X Range quality 100.0 % Test CRC 9FDAB7EA Copy CRC 9FDAB7EA Copy OK
No errors occurred
AccurateRip summary
Track 1 accurately ripped (confidence 2) [85CA7EA3] (AR v2)Track 2 accurately ripped (confidence 2) [14E7E490] (AR v2)Track 3 accurately ripped (confidence 2) [7256866E] (AR v2)
All tracks accurately ripped
End of status report
==== Log checksum ECA040587CC4D62086EC7DF58C2C128068FA19DEB444D70E2721FAF56FA874A4 ====



Показать сообщения:    

Текущее время: 10-Дек 06:04

Часовой пояс: UTC + 3


Вы не можете начинать темы
Вы не можете отвечать на сообщения
Вы не можете редактировать свои сообщения
Вы не можете удалять свои сообщения
Вы не можете голосовать в опросах
Вы не можете прикреплять файлы к сообщениям
Вы не можете скачивать файлы