Взгляд Одиссея / Взгляд Улисса / To Vlemma tou Odyssea / Ulysses' Gaze (Тео Ангелопулос / Theo Angelopoulos) [1995, Греция, Франция, Италия, Германия, Великобритания, драма, DVDRip] AVO (Визгунов) + Sub Rus + Original Eng


Статистика раздачи [Обновить пиров]
Размер:  2.45 GB   |    Зарегистрирован:  1 год 1 месяц   |    Скачан:  0 раз

Полного источника не было: Никогда

Личеров:  2  [  0 KB/s  ]   Подробная статистика пиров
 
   
 
 
 

[Цитировать]

Взгляд Одиссея / Взгляд Улисса / To Vlemma tou Odyssea / Ulysses' Gaze
Страна: Греция, Франция, Италия, Германия, Великобритания
Жанр: драма
Год выпуска: 1995
Продолжительность: 02:49:12
Перевод: Авторский (одноголосый закадровый) - Сергей Визгунов
Cубтитры: русские
Оригинальная аудиодорожка: английский

Режиссер: Тео Ангелопулос / Theo Angelopoulos
В ролях: Харви Кейтель, Майя Моргенштерн, Эрланд Йозефсон, Дора Воланаки, Танассис Венгос, Йоргос Михалакопулос, Люба Тадич, Танос Грамменос, Костас Сантас
Описание: Не много есть на свете режиссеров таких как Тео Ангелопулос. Его фильм "Пейзаж в тумане" был признан лучшим фильмом Европы. И вот - его новая работа, снятая по сценарию знаменитого сценариста Тонино Гуэрры, писавшего сценарии для Феллини, Антониони и Тарковского. Режиссер мечтает найти ролики первых операторов Балкан братьев Менакис. Они снимали Первую Мировую войну, и режиссеру очень интересен их взгляд на вещи. В поисках роликов он проезжает через три страны и одну войну и приобретает собственный взгляд на войну - бессмыссленное убийство людей, не ведающих, что творят... Фильм удостоен приза "Феликс" и специального приза жюри Каннского кинофестиваля.
Балканы, один из главных очагов напряженности в Европе, стали натурной площадкой сразу для нескольких значительных фильмов середины 1990-х годов. В 1994 году появилась притча «Перед дождем», через год «Подполье» и «Взгляд Одиссея». Все они, в той или иной степени, отражают трагедию балканских народов, которая началась выстрелом в Сараево и растянулась почти на все ХХ столетие. В который раз, обращаясь к античному наследию, теперь интерпретируя путешествия Одиссея, главный греческий режиссер Тео Ангелопулос создает вариацию эсхатологического мифа — еще одну историю о конце света, но в данном случае все же оставляющую надежду на спасение человечества.


Качество видео: DVDRip - DVD9
Формат видео: AVI
Видео: 688x400 (1.72:1), 25 fps, XviD build 73 ~1648 kbps avg, 0.24 bit/pixel
Аудио: 48 kHz, AC3 Dolby Digital, 2/0 (L,R) ch, ~192 kbps - авторский
Аудио: 48 kHz, AC3 Dolby Digital, 2/0 (L,R) ch, ~224 kbps - оригинал (отдельным файлом)

MediaInfo

Общее
Полное имя : H:\Ulysses'.Gaze.1995.dvdrip_[2.18]_[teko]\Ulysses'.Gaze.1995.dvdrip_[2.18].avi
Формат : AVI
Формат/Информация : Audio Video Interleave
Профиль формата : OpenDML
Размер файла : 2,18 Гбайт
Продолжительность : 2 ч. 49 м.
Общий поток : 1848 Кбит/сек
Программа кодирования : VirtualDubMod 1.5.10.3 | www.virtualdub-fr.org || (build 2550/release)
Библиотека кодирования : VirtualDubMod build 2550/release
Видео
Идентификатор : 0
Формат : MPEG-4 Visual
Профиль формата : Advanced Simple@L5
Параметр BVOP формата : 1
Параметр QPel формата : Нет
Параметр GMC формата : Без точки перехода
Параметр матрицы формата : Выборочная
Идентификатор кодека : XVID
Идентификатор кодека/Подсказка : XviD
Продолжительность : 2 ч. 49 м.
Битрейт : 1644 Кбит/сек
Ширина : 688 пикселей
Высота : 400 пикселей
Соотношение сторон : 1,720
Частота кадров : 25,000 кадров/сек
Цветовое пространство : YUV
Субдискретизация насыщенности : 4:2:0
Битовая глубина : 8 бит
Тип развёртки : Прогрессивная
Метод сжатия : С потерями
Бит/(Пиксели*Кадры) : 0.239
Размер потока : 1,94 Гбайт (89%)
Библиотека кодирования : XviD 73
Аудио
Идентификатор : 1
Формат : AC-3
Формат/Информация : Audio Coding 3
Расширение режима : CM (complete main)
Параметр Endianness формата : Big
Идентификатор кодека : 2000
Продолжительность : 2 ч. 48 м.
Вид битрейта : Постоянный
Битрейт : 192 Кбит/сек
Каналы : 2 канала
Расположение каналов : Front: L R
Частота : 48,0 КГц
Битовая глубина : 16 бит
Метод сжатия : С потерями
Размер потока : 232 Мбайт (10%)
Выравнивание : Разделение по промежуткам
Продолжительность промежутка : 40 мс. (1,00 видеокадр)
Время предзагрузки промежутка : 500 мс.

-
-
[teatrix.ru].t10551.torrent 
Торрент: Зарегистрирован [ 2015-11-04 12:20 ] · F8EA0B6A04BEBE23F40B4F08C1D0869EFDB6A86D

Скачать .torrent

Скачать

13 KB

Статус: проверено
Скачан: 0 раз
Размер: 2.45 GB
terms.php



Быстрый ответ

Имя:

      
Для отправки сообщений необходимо включить JavaScript
Показать сообщения:    

Текущее время: 08-Дек 12:53

Часовой пояс: UTC + 3


Вы можете начинать темы
Вы можете отвечать на сообщения
Вы не можете редактировать свои сообщения
Вы не можете удалять свои сообщения
Вы не можете голосовать в опросах
Вы не можете прикреплять файлы к сообщениям
Вы можете скачивать файлы