Девушка возвращается одна ночью домой / A Girl Walks Home Alone at Night (Ана Лили Амирпур / Ana Lily Amirpour) [2014, США, ужасы, триллер, драма, BDRip 1080p] DVO (2D) + Sub Rus, Eng + Original Per


 

[Цитировать]

Девушка возвращается одна ночью домой / A Girl Walks Home Alone at Night
Страна: США
Студия: Say Ahh Productions, SpectreVision, Logan Pictures
Жанр: ужасы, триллер, драма
Год выпуска: 2014
Продолжительность: 01:40:23
Перевод: Любительский (двухголосый закадровый) 2D
Cубтитры: русские (Chillerama), английские
Оригинальная аудиодорожка: иранский
Режиссер: Ана Лили Амирпур / Ana Lily Amirpour
В ролях: Шейла Ванд, Араш Маранди, Маршалл Манеш, Можан Марно, Амин Наземзадех, Роум Шаданлу и др.
Описание: Вампирша в чадре медленно катится на скейтборде по ночным улицам Гиблого Города, где живут не очень хорошие люди — наркоманы, воры и проститутки. Но сейчас тихо и никого нет. Горят фонари. С вечеринки возвращается парень в костюме графа Дракулы и говорит: «Я — граф Дракула». Но вампирша, убившая накануне сутенера, не тронет Дракулу, не прокусит ему шею, а посадит на скейт и повезет домой. Так родится союз двух одиночеств, затерянных бог весть где и существующих бог весть как.
II Сэмпл II IMDB II

Доп. информация:
За русские субтитры спасибо Sn@w
За перевод 2D спасибо Paul Banks
Тип релиза: BDRip 1080p
Контейнер: MKV
Видео: AVC / 1920x804 / 2.39:1 / 24.0fps / Bit rate 10000Kbps / High@L4.1
Аудио 1: AC3 / 48.0 KHz / 2ch. / 192kbps / rus / DVO / 2D
Аудио 2: DTS / 48.0 KHz / 6ch. / 1509kbps / 24bit / per
Формат субтитров: softsub (SRT)

MediaInfo

Общее
Уникальный идентификатор : 212884646759504603922292627738677070213 (0xA028177267DDEFB1851C10CB504DC985)
Полное имя : G:\!!!_torrent\A.Girl.Walks.Home.Alone.At.Night.2014.BDRip.1080p_by_vedigo.mkv
Формат : Matroska
Версия формата : Version 4 / Version 2
Размер файла : 8,20 Гбайт
Продолжительность : 1 ч. 40 м.
Общий поток : 11,7 Мбит/сек
Название фильма : A.Girl.Walks.Home.Alone.At.Night.2014.BDRip.720p_by_vedigo
Дата кодирования : UTC 2015-11-03 01:20:24
Программа кодирования : mkvmerge v8.5.1 ('Where you lead I will follow') 64bit
Библиотека кодирования : libebml v1.3.3 + libmatroska v1.4.4
DURATION : 01:25:36.875000000
NUMBER_OF_FRAMES : 331
NUMBER_OF_BYTES : 7866
_STATISTICS_WRITING_APP : mkvmerge v8.5.1 ('Where you lead I will follow') 64bit
_STATISTICS_WRITING_DATE_UTC : 2015-11-03 01:20:24
_STATISTICS_TAGS : BPS DURATION NUMBER_OF_FRAMES NUMBER_OF_BYTES
Видео
Идентификатор : 1
Формат : AVC
Формат/Информация : Advanced Video Codec
Профиль формата : High@L4.1
Параметр CABAC формата : Да
Параметр ReFrames формата : 5 кадров
Идентификатор кодека : V_MPEG4/ISO/AVC
Продолжительность : 1 ч. 40 м.
Битрейт : 10000 Кбит/сек
Ширина : 1920 пикселей
Высота : 804 пикселя
Соотношение сторон : 2,40:1
Режим частоты кадров : Постоянный
Частота кадров : 24,000 кадра/сек
Цветовое пространство : YUV
Субдискретизация насыщенности : 4:2:0
Битовая глубина : 8 бит
Тип развёртки : Прогрессивная
Бит/(Пиксели*Кадры) : 0.270
Размер потока : 6,85 Гбайт (83%)
Заголовок : A.Girl.Walks.Home.Alone.At.Night.2014.BDRip.1080p_by_vedigo
Библиотека кодирования : x264 core 148 r2638 7599210
Настройки программы : cabac=1 / ref=5 / deblock=1:-3:-3 / analyse=0x3:0x133 / me=umh / subme=11 / psy=0 / mixed_ref=1 / me_range=64 / chroma_me=1 / trellis=2 / 8x8dct=1 / cqm=0 / deadzone=21,11 / fast_pskip=0 / chroma_qp_offset=0 / threads=12 / lookahead_threads=3 / sliced_threads=0 / nr=0 / decimate=1 / interlaced=0 / bluray_compat=0 / constrained_intra=0 / bframes=10 / b_pyramid=2 / b_adapt=2 / b_bias=0 / direct=3 / weightb=1 / open_gop=0 / weightp=2 / keyint=250 / keyint_min=23 / scenecut=40 / intra_refresh=0 / rc_lookahead=40 / rc=2pass / mbtree=0 / bitrate=10000 / ratetol=1.0 / qcomp=0.60 / qpmin=0 / qpmax=69 / qpstep=4 / cplxblur=20.0 / qblur=0.5 / vbv_maxrate=50000 / vbv_bufsize=62500 / nal_hrd=none / filler=0 / ip_ratio=1.40 / pb_ratio=1.30 / aq=1:0.90
Default : Да
Forced : Нет
DURATION : 01:40:23.963000000
NUMBER_OF_FRAMES : 144575
NUMBER_OF_BYTES : 7525206274
_STATISTICS_WRITING_APP : mkvmerge v8.5.1 ('Where you lead I will follow') 64bit
_STATISTICS_WRITING_DATE_UTC : 2015-11-03 01:20:24
_STATISTICS_TAGS : BPS DURATION NUMBER_OF_FRAMES NUMBER_OF_BYTES
Аудио #1
Идентификатор : 2
Формат : AC-3
Формат/Информация : Audio Coding 3
Расширение режима : CM (complete main)
Параметр Endianness формата : Big
Идентификатор кодека : A_AC3
Продолжительность : 1 ч. 40 м.
Вид битрейта : Постоянный
Битрейт : 192 Кбит/сек
Каналы : 2 канала
Расположение каналов : Front: L R
Частота : 48,0 КГц
Метод сжатия : С потерями
Размер потока : 138 Мбайт (2%)
Заголовок : DVO @ 2D
Язык : Russian
Default : Да
Forced : Нет
Аудио #2
Идентификатор : 3
Формат : DTS
Формат/Информация : Digital Theater Systems
Режим : 16
Параметр Endianness формата : Big
Идентификатор кодека : A_DTS
Продолжительность : 1 ч. 40 м.
Вид битрейта : Постоянный
Битрейт : 1509 Кбит/сек
Каналы : 6 каналов
Расположение каналов : Front: L C R, Side: L R, LFE
Частота : 48,0 КГц
Битовая глубина : 24 бит
Метод сжатия : С потерями
Размер потока : 1,06 Гбайт (13%)
Заголовок : original
Язык : Persian
Default : Нет
Forced : Нет
Текст #1
Идентификатор : 4
Формат : UTF-8
Идентификатор кодека : S_TEXT/UTF8
Идентификатор кодека/Информация : UTF-8 Plain Text
Заголовок : subtitle rus
Язык : Russian
Default : Нет
Forced : Нет
Текст #2
Идентификатор : 5
Формат : UTF-8
Идентификатор кодека : S_TEXT/UTF8
Идентификатор кодека/Информация : UTF-8 Plain Text
Заголовок : subtitle eng
Язык : English
Default : Нет
Forced : Нет
Меню
00:00:00.000 : en:00:00:00.000
00:06:38.292 : en:00:06:38.292
00:12:38.708 : en:00:12:38.708
00:18:15.667 : en:00:18:15.667
00:24:04.875 : en:00:24:04.875
00:31:47.292 : en:00:31:47.292
00:38:33.375 : en:00:38:33.375
00:45:12.333 : en:00:45:12.333
00:50:49.458 : en:00:50:49.458
00:56:43.417 : en:00:56:43.417
01:02:38.667 : en:01:02:38.667
01:07:30.083 : en:01:07:30.083
01:15:36.958 : en:01:15:36.958
01:21:51.958 : en:01:21:51.958
01:26:45.708 : en:01:26:45.708
01:36:03.250 : en:01:36:03.250

Скриншоты


Сравнение с исходником





x264 info

x264 [info]: frame I:792 Avg QP:10.07 size:149114
x264 [info]: frame P:27875 Avg QP:13.25 size: 78053
x264 [info]: frame B:115908 Avg QP:15.04 size: 45134
x264 [info]: consecutive B-frames: 1.7% 1.7% 5.5% 8.7% 10.3% 55.4% 6.8% 1.7% 3.0% 2.6% 2.7%
x264 [info]: mb I I16..4: 27.6% 42.4% 30.0%
x264 [info]: mb P I16..4: 7.0% 16.8% 9.6% P16..4: 19.2% 16.0% 6.9% 1.1% 0.1% skip:23.4%
x264 [info]: mb B I16..4: 4.6% 7.0% 2.7% B16..8: 18.4% 16.0% 3.3% direct: 9.4% skip:38.7% L0:43.4% L1:34.3% BI:22.3%
x264 [info]: 8x8 transform intra:49.4% inter:34.7%
x264 [info]: direct mvs spatial:99.1% temporal:0.9%
x264 [info]: coded y,uvDC,uvAC intra: 91.6% 0.5% 0.4% inter: 32.2% 0.1% 0.0%
x264 [info]: i16 v,h,dc,p: 7% 6% 50% 37%
x264 [info]: i8 v,h,dc,ddl,ddr,vr,hd,vl,hu: 20% 12% 30% 6% 6% 7% 5% 8% 7%
x264 [info]: i4 v,h,dc,ddl,ddr,vr,hd,vl,hu: 30% 14% 26% 5% 6% 7% 4% 5% 4%
x264 [info]: i8c dc,h,v,p: 11% 86% 0% 3%
x264 [info]: Weighted P-Frames: Y:3.3% UV:0.2%
x264 [info]: ref P L0: 44.5% 8.5% 26.1% 10.0% 10.1% 0.7% 0.0%
x264 [info]: ref B L0: 71.3% 20.8% 6.2% 1.7%
x264 [info]: ref B L1: 90.8% 9.2%
x264 [info]: kb/s:9993.69



Показать сообщения:    

Текущее время: 07-Дек 15:34

Часовой пояс: UTC + 3


Вы не можете начинать темы
Вы не можете отвечать на сообщения
Вы не можете редактировать свои сообщения
Вы не можете удалять свои сообщения
Вы не можете голосовать в опросах
Вы не можете прикреплять файлы к сообщениям
Вы не можете скачивать файлы