(Song, Musical, Chamber) Joyce DiDonato & Antonio Pappano - Joyce & Tony: Live at Wigmore Hall (Songs by Rossini, Santoliquido, Curtis, excerpt from Haydn's Arianna a Naxos, scenes from American musicals), 2014/2015, FLAC (tracks+.cue),


 

[Цитировать]

Joyce DiDonato & Antonio Pappano - Joyce & Tony: Live at Wigmore Hall
Жанр: Song, Musical, Chamber, Vocal
Страна-производитель диска: CША
Год издания диска: 2015
Издатель (лейбл): Erato
Дата записи: 2014
Аудиокодек: FLAC
Тип рипа: tracks+.cue
Битрейт аудио: lossless
Продолжительность: 89:14
Источник: релизер (sddd)
Исполнители:
Joyce DiDonato, mezzo-soprano,
Antonio Pappano, piano.
Recorded live at Wigmore Hall, London, September 2014.

Лог создания рипаЛог создания рипа CD 1

Exact Audio Copy V1.0 beta 4 from 7. December 2014
EAC extraction logfile from 31. October 2015, 14:17
Joyce DiDonato & Antonio Pappano / Joyce & Tony - Live at Wigmore Hall (Disc 1)
Used drive : PIONEER DVD-RW DVR-216D Adapter: 1 ID: 0
Read mode : SecureUtilize accurate stream : YesDefeat audio cache : YesMake use of C2 pointers : No
Read offset correction : 96Overread into Lead-In and Lead-Out : NoFill up missing offset samples with silence : YesDelete leading and trailing silent blocks : NoNull samples used in CRC calculations : YesUsed interface : Native Win32 interface for Win NT & 2000Gap handling : Appended to previous track
Used output format : User Defined EncoderSelected bitrate : 128 kBit/sQuality : HighAdd ID3 tag : NoCommand line compressor : C:\Program Files (x86)\Exact Audio Copy\Flac\flac.exeAdditional command line options : -8 -V -T "ARTIST=%artist%" -T "TITLE=%title%" -T "ALBUM=%albumtitle%" -T "DATE=%year%" -T "TRACKNUMBER=%tracknr1%" -T "GENRE=%genre%" -T "PERFORMER=%albuminterpret%" -T "COMPOSER=%composer%" %haslyrics%--tag-from-file=LYRICS="%lyricsfile%"%haslyrics% -T "ALBUMARTIST=%albumartist%" -T "DISCNUMBER=%cdnumber%" -T "TOTALDISCS=%totalcds%" -T "TOTALTRACKS=%numtracks%" -T "COMMENT=%comment%" %source% -o %dest%
TOC of the extracted CD
Track | Start | Length | Start sector | End sector --------------------------------------------------------- 1 | 0:01.00 | 19:49.12 | 75 | 89261 2 | 19:50.12 | 4:46.01 | 89262 | 110712 3 | 24:36.13 | 3:09.03 | 110713 | 124890 4 | 27:45.16 | 2:20.49 | 124891 | 135439 5 | 30:05.65 | 1:05.26 | 135440 | 140340 6 | 31:11.16 | 2:39.67 | 140341 | 152332 7 | 33:51.08 | 4:05.17 | 152333 | 170724 8 | 37:56.25 | 3:55.29 | 170725 | 188378
Track 1
Filename C:\EAC Rips\Joyce DiDonato & Antonio Pappano - Joyce & Tony - Live at Wigmore Hall (2015) [FLAC]\Disc 1\01 - Haydn- Arianna a Naxos, Hob.XXVIb- 2.wav
Pre-gap length 0:00:03.00
Peak level 94.5 % Extraction speed 5.6 X Track quality 100.0 % Test CRC D307D8F0 Copy CRC D307D8F0 Track not present in AccurateRip database Copy OK
Track 2
Filename C:\EAC Rips\Joyce DiDonato & Antonio Pappano - Joyce & Tony - Live at Wigmore Hall (2015) [FLAC]\Disc 1\02 - Rossini- Beltà crudele.wav
Peak level 78.4 % Extraction speed 6.2 X Track quality 100.0 % Test CRC BA5E0275 Copy CRC BA5E0275 Track not present in AccurateRip database Copy OK
Track 3
Filename C:\EAC Rips\Joyce DiDonato & Antonio Pappano - Joyce & Tony - Live at Wigmore Hall (2015) [FLAC]\Disc 1\03 - Rossini- Les soirées musicales- No. 8 La danza.wav
Peak level 70.9 % Extraction speed 6.1 X Track quality 100.0 % Test CRC 7312C6CD Copy CRC 7312C6CD Track not present in AccurateRip database Copy OK
Track 4
Filename C:\EAC Rips\Joyce DiDonato & Antonio Pappano - Joyce & Tony - Live at Wigmore Hall (2015) [FLAC]\Disc 1\04 - Santoliquido- I canti della sera- I. L'assiolo canta.wav
Peak level 53.1 % Extraction speed 5.9 X Track quality 100.0 % Test CRC FFF4D6C6 Copy CRC FFF4D6C6 Track not present in AccurateRip database Copy OK
Track 5
Filename C:\EAC Rips\Joyce DiDonato & Antonio Pappano - Joyce & Tony - Live at Wigmore Hall (2015) [FLAC]\Disc 1\05 - Santoliquido- I canti della sera- II. Alba di luna sul bosco.wav
Peak level 64.5 % Extraction speed 4.9 X Track quality 100.0 % Test CRC 791D203D Copy CRC 791D203D Track not present in AccurateRip database Copy OK
Track 6
Filename C:\EAC Rips\Joyce DiDonato & Antonio Pappano - Joyce & Tony - Live at Wigmore Hall (2015) [FLAC]\Disc 1\06 - Santoliquido- I canti della sera- III. Tristezza....wav
Peak level 86.3 % Extraction speed 6.3 X Track quality 100.0 % Test CRC B2F9ADD2 Copy CRC B2F9ADD2 Track not present in AccurateRip database Copy OK
Track 7
Filename C:\EAC Rips\Joyce DiDonato & Antonio Pappano - Joyce & Tony - Live at Wigmore Hall (2015) [FLAC]\Disc 1\07 - Santoliquido- I canti della sera- IV. L'incontro.wav
Peak level 98.3 % Extraction speed 7.0 X Track quality 100.0 % Test CRC 92972EE4 Copy CRC 92972EE4 Track not present in AccurateRip database Copy OK
Track 8
Filename C:\EAC Rips\Joyce DiDonato & Antonio Pappano - Joyce & Tony - Live at Wigmore Hall (2015) [FLAC]\Disc 1\08 - De Curtis - Non ti scordar di me!.wav
Peak level 85.8 % Extraction speed 6.3 X Track quality 99.9 % Test CRC 13E28065 Copy CRC 13E28065 Track not present in AccurateRip database Copy OK
None of the tracks are present in the AccurateRip database
No errors occurred
End of status report
---- CUETools DB Plugin V2.1.4
[CTDB TOCID: 2rGqbpb6FeMFudnmyt45epv7RMo-] foundSubmit result: already submittedTrack | CTDB Status 1 | (3/3) Accurately ripped 2 | (3/3) Accurately ripped 3 | (3/3) Accurately ripped 4 | (3/3) Accurately ripped 5 | (3/3) Accurately ripped 6 | (3/3) Accurately ripped 7 | (3/3) Accurately ripped 8 | (3/3) Accurately ripped
==== Log checksum 9E76BDC05A912B477D568376894AFE9A161156361B7ABB57EECF8F9E4D7D6C72 ====

Лог создания рипа CD 2

Exact Audio Copy V1.0 beta 4 from 7. December 2014
EAC extraction logfile from 31. October 2015, 13:53
Joyce DiDonato & Antonio Pappano / Joyce & Tony - Live at Wigmore Hall (Disc 2)
Used drive : PIONEER DVD-RW DVR-216D Adapter: 1 ID: 0
Read mode : SecureUtilize accurate stream : YesDefeat audio cache : YesMake use of C2 pointers : No
Read offset correction : 96Overread into Lead-In and Lead-Out : NoFill up missing offset samples with silence : YesDelete leading and trailing silent blocks : NoNull samples used in CRC calculations : YesUsed interface : Native Win32 interface for Win NT & 2000Gap handling : Appended to previous track
Used output format : User Defined EncoderSelected bitrate : 128 kBit/sQuality : HighAdd ID3 tag : NoCommand line compressor : C:\Program Files (x86)\Exact Audio Copy\Flac\flac.exeAdditional command line options : -8 -V -T "ARTIST=%artist%" -T "TITLE=%title%" -T "ALBUM=%albumtitle%" -T "DATE=%year%" -T "TRACKNUMBER=%tracknr1%" -T "GENRE=%genre%" -T "PERFORMER=%albuminterpret%" -T "COMPOSER=%composer%" %haslyrics%--tag-from-file=LYRICS="%lyricsfile%"%haslyrics% -T "ALBUMARTIST=%albumartist%" -T "DISCNUMBER=%cdnumber%" -T "TOTALDISCS=%totalcds%" -T "TOTALTRACKS=%numtracks%" -T "COMMENT=%comment%" %source% -o %dest%
TOC of the extracted CD
Track | Start | Length | Start sector | End sector --------------------------------------------------------- 1 | 0:00.00 | 3:59.57 | 0 | 17981 2 | 3:59.57 | 3:24.27 | 17982 | 33308 3 | 7:24.09 | 4:04.29 | 33309 | 51637 4 | 11:28.38 | 3:30.03 | 51638 | 67390 5 | 14:58.41 | 2:46.50 | 67391 | 79890 6 | 17:45.16 | 2:30.51 | 79891 | 91191 7 | 20:15.67 | 2:45.72 | 91192 | 103638 8 | 23:01.64 | 3:05.48 | 103639 | 117561 9 | 26:07.37 | 2:13.39 | 117562 | 127575 10 | 28:21.01 | 3:20.28 | 127576 | 142603 11 | 31:41.29 | 2:53.69 | 142604 | 155647 12 | 34:35.23 | 3:46.70 | 155648 | 172667 13 | 38:22.18 | 3:20.38 | 172668 | 187705 14 | 41:42.56 | 5:50.18 | 187706 | 213973
Track 1
Filename C:\EAC Rips\Joyce DiDonato & Antonio Pappano - Joyce & Tony - Live at Wigmore Hall (2015) [FLAC]\Disc 2\01 - Foster- Beautiful Dreamer.wav
Pre-gap length 0:00:02.00
Peak level 58.2 % Extraction speed 4.2 X Track quality 100.0 % Test CRC CCD7C19B Copy CRC CCD7C19B Track not present in AccurateRip database Copy OK
Track 2
Filename C:\EAC Rips\Joyce DiDonato & Antonio Pappano - Joyce & Tony - Live at Wigmore Hall (2015) [FLAC]\Disc 2\02 - Kern- Leave it to Jane- The Siren's Song.wav
Peak level 48.2 % Extraction speed 4.6 X Track quality 100.0 % Test CRC 584300F4 Copy CRC 584300F4 Track not present in AccurateRip database Copy OK
Track 3
Filename C:\EAC Rips\Joyce DiDonato & Antonio Pappano - Joyce & Tony - Live at Wigmore Hall (2015) [FLAC]\Disc 2\03 - Kern- Oh, My Dear!- Go Little Boat.wav
Peak level 56.2 % Extraction speed 5.0 X Track quality 100.0 % Test CRC 7555F263 Copy CRC 7555F263 Track not present in AccurateRip database Copy OK
Track 4
Filename C:\EAC Rips\Joyce DiDonato & Antonio Pappano - Joyce & Tony - Live at Wigmore Hall (2015) [FLAC]\Disc 2\04 - Nelson- 4 Irish Songs- I Lovely Jimmie.wav
Peak level 59.8 % Extraction speed 5.3 X Track quality 100.0 % Test CRC 658AD7E8 Copy CRC 658AD7E8 Track not present in AccurateRip database Copy OK
Track 5
Filename C:\EAC Rips\Joyce DiDonato & Antonio Pappano - Joyce & Tony - Live at Wigmore Hall (2015) [FLAC]\Disc 2\05 - Dougherty- Love in the Dictionary.wav
Peak level 59.2 % Extraction speed 4.5 X Track quality 99.9 % Test CRC 4380A0C9 Copy CRC 4380A0C9 Track not present in AccurateRip database Copy OK
Track 6
Filename C:\EAC Rips\Joyce DiDonato & Antonio Pappano - Joyce & Tony - Live at Wigmore Hall (2015) [FLAC]\Disc 2\06 - Kern- Show Boat- Life upon the Wicked Stage.wav
Peak level 58.0 % Extraction speed 5.4 X Track quality 100.0 % Test CRC ED883A0F Copy CRC ED883A0F Track not present in AccurateRip database Copy OK
Track 7
Filename C:\EAC Rips\Joyce DiDonato & Antonio Pappano - Joyce & Tony - Live at Wigmore Hall (2015) [FLAC]\Disc 2\07 - Moross- The Golden Apple- Lazy Afternoon.wav
Peak level 17.5 % Extraction speed 5.8 X Track quality 100.0 % Test CRC DE46CA76 Copy CRC DE46CA76 Track not present in AccurateRip database Copy OK
Track 8
Filename C:\EAC Rips\Joyce DiDonato & Antonio Pappano - Joyce & Tony - Live at Wigmore Hall (2015) [FLAC]\Disc 2\08 - Bolcom- Cabaret Songs, Vol. 1- Amor.wav
Peak level 51.3 % Extraction speed 6.1 X Track quality 100.0 % Test CRC 6CE6FDB2 Copy CRC 6CE6FDB2 Track not present in AccurateRip database Copy OK
Track 9
Filename C:\EAC Rips\Joyce DiDonato & Antonio Pappano - Joyce & Tony - Live at Wigmore Hall (2015) [FLAC]\Disc 2\09 - Villa-Lobos- Magdalena- Food for Thought.wav
Peak level 83.8 % Extraction speed 5.8 X Track quality 100.0 % Test CRC C8C2950A Copy CRC C8C2950A Track not present in AccurateRip database Copy OK
Track 10
Filename C:\EAC Rips\Joyce DiDonato & Antonio Pappano - Joyce & Tony - Live at Wigmore Hall (2015) [FLAC]\Disc 2\10 - Kern- Show Boat- Can't help Lovin' dat Man.wav
Peak level 43.7 % Extraction speed 6.5 X Track quality 100.0 % Test CRC EA6EAE6E Copy CRC EA6EAE6E Track not present in AccurateRip database Copy OK
Track 11
Filename C:\EAC Rips\Joyce DiDonato & Antonio Pappano - Joyce & Tony - Live at Wigmore Hall (2015) [FLAC]\Disc 2\11 - Rodgers- Babes in Arms- My Funny Valentine.wav
Peak level 53.5 % Extraction speed 5.6 X Track quality 99.9 % Test CRC 4FF4426C Copy CRC 4FF4426C Track not present in AccurateRip database Copy OK
Track 12
Filename C:\EAC Rips\Joyce DiDonato & Antonio Pappano - Joyce & Tony - Live at Wigmore Hall (2015) [FLAC]\Disc 2\12 - Kern- Very Warm for May- All the Things You Are.wav
Peak level 44.4 % Extraction speed 7.0 X Track quality 100.0 % Test CRC F0C07020 Copy CRC F0C07020 Track not present in AccurateRip database Copy OK
Track 13
Filename C:\EAC Rips\Joyce DiDonato & Antonio Pappano - Joyce & Tony - Live at Wigmore Hall (2015) [FLAC]\Disc 2\13 - Berlin- I Love a Piano.wav
Peak level 80.7 % Extraction speed 6.1 X Track quality 99.9 % Test CRC ECD5B3E9 Copy CRC ECD5B3E9 Track not present in AccurateRip database Copy OK
Track 14
Filename C:\EAC Rips\Joyce DiDonato & Antonio Pappano - Joyce & Tony - Live at Wigmore Hall (2015) [FLAC]\Disc 2\14 - Arlen- The Wizard of Oz- Over the Rainbow.wav
Peak level 61.7 % Extraction speed 7.2 X Track quality 99.9 % Test CRC B7309F98 Copy CRC B7309F98 Track not present in AccurateRip database Copy OK
None of the tracks are present in the AccurateRip database
No errors occurred
End of status report
---- CUETools DB Plugin V2.1.4
[CTDB TOCID: SvYjdfwJFUScrS7ECMIeKXiI_00-] foundSubmit result: SvYjdfwJFUScrS7ECMIeKXiI_00- has been confirmedTrack | CTDB Status 1 | (2/2) Accurately ripped 2 | (2/2) Accurately ripped 3 | (2/2) Accurately ripped 4 | (2/2) Accurately ripped 5 | (2/2) Accurately ripped 6 | (2/2) Accurately ripped 7 | (2/2) Accurately ripped 8 | (2/2) Accurately ripped 9 | (2/2) Accurately ripped 10 | (2/2) Accurately ripped 11 | (2/2) Accurately ripped 12 | (2/2) Accurately ripped 13 | (2/2) Accurately ripped 14 | (2/2) Accurately ripped
==== Log checksum F06C58B300D514CE9A25791767C0098777D7564DE7280DDCDB4F87A24EEE9549 ====

Содержание индексной карты (.CUE)Содержание индексной карты (.CUE) CD 1

REM GENRE ClassicalREM DATE 2015REM DISCID 7609CE08REM COMMENT "ExactAudioCopy v1.0b4"CATALOG 0825646107896PERFORMER "Joyce DiDonato & Antonio Pappano"TITLE "Joyce & Tony - Live at Wigmore Hall (Disc 1)"FILE "01 - Haydn- Arianna a Naxos, Hob.XXVIb- 2.wav" WAVE TRACK 01 AUDIO TITLE "Haydn: Arianna a Naxos, Hob.XXVIb: 2" PERFORMER "Joyce DiDonato & Antonio Pappano" ISRC GBAYC1500863 PREGAP 00:01:00 INDEX 01 00:00:00FILE "02 - Rossini- Beltа crudele.wav" WAVE TRACK 02 AUDIO TITLE "Rossini: Beltа crudele" PERFORMER "Joyce DiDonato & Antonio Pappano" ISRC GBAYC1500864 INDEX 01 00:00:00FILE "03 - Rossini- Les soirйes musicales- No. 8 La danza.wav" WAVE TRACK 03 AUDIO TITLE "Rossini: Les soirйes musicales: No. 8 La danza" PERFORMER "Joyce DiDonato & Antonio Pappano" ISRC GBAYC1500865 INDEX 01 00:00:00FILE "04 - Santoliquido- I canti della sera- I. L'assiolo canta.wav" WAVE TRACK 04 AUDIO TITLE "Santoliquido: I canti della sera: I. L'assiolo canta" PERFORMER "Joyce DiDonato & Antonio Pappano" ISRC GBAYC1500866 INDEX 01 00:00:00FILE "05 - Santoliquido- I canti della sera- II. Alba di luna sul bosco.wav" WAVE TRACK 05 AUDIO TITLE "Santoliquido: I canti della sera: II. Alba di luna sul bosco" PERFORMER "Joyce DiDonato & Antonio Pappano" ISRC GBAYC1500867 INDEX 01 00:00:00FILE "06 - Santoliquido- I canti della sera- III. Tristezza....wav" WAVE TRACK 06 AUDIO TITLE "Santoliquido: I canti della sera: III. Tristezza..." PERFORMER "Joyce DiDonato & Antonio Pappano" ISRC GBAYC1500868 INDEX 01 00:00:00FILE "07 - Santoliquido- I canti della sera- IV. L'incontro.wav" WAVE TRACK 07 AUDIO TITLE "Santoliquido: I canti della sera: IV. L'incontro" PERFORMER "Joyce DiDonato & Antonio Pappano" ISRC GBAYC1500869 INDEX 01 00:00:00FILE "08 - De Curtis - Non ti scordar di me!.wav" WAVE TRACK 08 AUDIO TITLE "De Curtis : Non ti scordar di me!" PERFORMER "Joyce DiDonato & Antonio Pappano" ISRC GBAYC1500870 INDEX 01 00:00:00

Содержание индексной карты (.CUE) CD 2

REM GENRE ClassicalREM DATE 2015REM DISCID A80B240EREM COMMENT "ExactAudioCopy v1.0b4"CATALOG 0825646107896PERFORMER "Joyce DiDonato & Antonio Pappano"TITLE "Joyce & Tony - Live at Wigmore Hall (Disc 2)"FILE "01 - Foster- Beautiful Dreamer.wav" WAVE TRACK 01 AUDIO TITLE "Foster: Beautiful Dreamer" PERFORMER "Joyce DiDonato & Antonio Pappano" ISRC GBAYC1500871 INDEX 01 00:00:00FILE "02 - Kern- Leave it to Jane- The Siren's Song.wav" WAVE TRACK 02 AUDIO TITLE "Kern: Leave it to Jane: The Siren's Song" PERFORMER "Joyce DiDonato & Antonio Pappano" ISRC GBAYC1500872 INDEX 01 00:00:00FILE "03 - Kern- Oh, My Dear!- Go Little Boat.wav" WAVE TRACK 03 AUDIO TITLE "Kern: Oh, My Dear!: Go Little Boat" PERFORMER "Joyce DiDonato & Antonio Pappano" ISRC GBAYC1500873 INDEX 01 00:00:00FILE "04 - Nelson- 4 Irish Songs- I Lovely Jimmie.wav" WAVE TRACK 04 AUDIO TITLE "Nelson: 4 Irish Songs: I Lovely Jimmie" PERFORMER "Joyce DiDonato & Antonio Pappano" ISRC GBAYC1500874 INDEX 01 00:00:00FILE "05 - Dougherty- Love in the Dictionary.wav" WAVE TRACK 05 AUDIO TITLE "Dougherty: Love in the Dictionary" PERFORMER "Joyce DiDonato & Antonio Pappano" ISRC GBAYC1500875 INDEX 01 00:00:00FILE "06 - Kern- Show Boat- Life upon the Wicked Stage.wav" WAVE TRACK 06 AUDIO TITLE "Kern: Show Boat: Life upon the Wicked Stage" PERFORMER "Joyce DiDonato & Antonio Pappano" ISRC GBAYC1500876 INDEX 01 00:00:00FILE "07 - Moross- The Golden Apple- Lazy Afternoon.wav" WAVE TRACK 07 AUDIO TITLE "Moross: The Golden Apple: Lazy Afternoon" PERFORMER "Joyce DiDonato & Antonio Pappano" ISRC GBAYC1500877 INDEX 01 00:00:00FILE "08 - Bolcom- Cabaret Songs, Vol. 1- Amor.wav" WAVE TRACK 08 AUDIO TITLE "Bolcom: Cabaret Songs, Vol. 1: Amor" PERFORMER "Joyce DiDonato & Antonio Pappano" ISRC GBAYC1500878 INDEX 01 00:00:00FILE "09 - Villa-Lobos- Magdalena- Food for Thought.wav" WAVE TRACK 09 AUDIO TITLE "Villa-Lobos: Magdalena: Food for Thought" PERFORMER "Joyce DiDonato & Antonio Pappano" ISRC GBAYC1500879 INDEX 01 00:00:00FILE "10 - Kern- Show Boat- Can't help Lovin' dat Man.wav" WAVE TRACK 10 AUDIO TITLE "Kern: Show Boat: Can't help Lovin' dat Man" PERFORMER "Joyce DiDonato & Antonio Pappano" ISRC GBAYC1500880 INDEX 01 00:00:00FILE "11 - Rodgers- Babes in Arms- My Funny Valentine.wav" WAVE TRACK 11 AUDIO TITLE "Rodgers: Babes in Arms: My Funny Valentine" PERFORMER "Joyce DiDonato & Antonio Pappano" ISRC GBAYC1500881 INDEX 01 00:00:00FILE "12 - Kern- Very Warm for May- All the Things You Are.wav" WAVE TRACK 12 AUDIO TITLE "Kern: Very Warm for May: All the Things You Are" PERFORMER "Joyce DiDonato & Antonio Pappano" ISRC GBAYC1500882 INDEX 01 00:00:00FILE "13 - Berlin- I Love a Piano.wav" WAVE TRACK 13 AUDIO TITLE "Berlin: I Love a Piano" PERFORMER "Joyce DiDonato & Antonio Pappano" ISRC GBAYC1500883 INDEX 01 00:00:00FILE "14 - Arlen- The Wizard of Oz- Over the Rainbow.wav" WAVE TRACK 14 AUDIO TITLE "Arlen: The Wizard of Oz: Over the Rainbow" PERFORMER "Joyce DiDonato & Antonio Pappano" ISRC GBAYC1500884 INDEX 01 00:00:00

Треклист

Disc 1:
1. Franz Joseph Haydn - Arianna a Naxos (excerpt)
Gioachino Rossini:
2. Beltà crudele
3. Les soirées musicales: No. 8 La danza
Francesco Santoliquido - I canti della sera:
4. I. L'assiolo canta
5. II. Alba di luna sul bosco
6. III. Tristezza crepuscolare
7. IV. L'incontro
8. Ernesto de Curtis - Non ti scordar di me!
Disc 2:
1. Stephen Foster - Beautiful Dreamer
Jerome Kern:
2. Leave it to Jane, Act 2: The Siren's Song
3. Oh, My Dear!: Go Little Boat
4. Havelock Nelson - Irish Songs: I. Lovely Jimmie
5. Celius Dougherty - Love in the Dictionary
6. Jerome Kern - Show Boat, Act 1: "Life Upon the Wicked Stage"
7. Jerome Moross - The Golden Apple, Act 1: "Lazy Afternoon"
8. William Bolcom - Cabaret Songs, Volume 1: Amor
9. Heitor Villa-Lobos - Magdalena, Act 1: "Food for Thought"
10. Jerome Kern - Show Boat, Act 1: "Can't Help Lovin' Dat Man"
11. Richard Rodgers - Babes in Arms: My Funny Valentine
12. Jerome Kern - Very Warm for May: "All the Things You Are"
13. Irving Berlin - I Love a Piano
14. Harold Arlen - Over the Rainbow



Показать сообщения:    

Текущее время: 04-Дек 23:23

Часовой пояс: UTC + 3


Вы не можете начинать темы
Вы не можете отвечать на сообщения
Вы не можете редактировать свои сообщения
Вы не можете удалять свои сообщения
Вы не можете голосовать в опросах
Вы не можете прикреплять файлы к сообщениям
Вы не можете скачивать файлы