Девушка из Марфы / Marfa Girl (Ларри Кларк / Larry Clark) [2012, США, драма, DVDRip] + Sub Rus + Original Eng


Статистика раздачи [Обновить пиров]
Размер:  1.45 GB   |    Зарегистрирован:  1 год 1 месяц   |    Скачан:  0 раз
Сидов:  1  [  0 KB/s  ]   Личеров:  2  [  0 KB/s  ]   Подробная статистика пиров
 
   
 
 
 

[Цитировать]

Девушка из Марфы / Marfa Girl
Страна: США
Жанр: драма
Год выпуска: 2012
Продолжительность: 01:47:20
Перевод: Субтитры : Неизвестно (web)
Русские субтитры: creo140
Оригинальная аудиодорожка: английский
Режиссер: Ларри Кларк / Larry Clark
В ролях: Адам Медиано, Кэйлан Бернетт, Джереми Ст. Джеймс, Мэри Фарли, Мерседес Максвелл, Индиго Раэль, Джесси Техада, Ричард Ковуррубиас, Эрик Квинтана, Линдсэй Джонс
Описание: В Марфе, штат Техас, где разворачиваются события в фильме, я оказался случайно. Это очень странный город. В нем происходит столкновение разных культур — белых и латиноамериканцев, которые родились и выросли там. Кроме того, в Марфе есть большая станция пограничного контроля с Мексикой. Они выбрали этот городок для своего штаба. Поэтому вокруг постоянно летает их дирижабль с инфракрасными камерами и за всеми наблюдает. Еще туда приезжает порядочно людей из Нью-Йорка, они тоже живут отдельно от местных. В результате в Марфе постоянно происходят какие-нибудь конфликты, на почве расизма или чего-нибудь еще. И вот я подумал, каково ребенку расти здесь. А потом я встретил этого ребенка, Адама Медиано, который согласился сняться в моем фильме. Его самая большая мечта — свалить к черту из этой Марфы. Ларри Кларк
Доп. информация: http://www.kinopoisk.ru/film/684551/
http://www.imdb.com/title/tt2168854/
Сэмпл: http://multi-up.com/1074246
Качество видео: DVDRip
Формат видео: AVI
Видео: Xvid 720x400 23.976fps 1539kbps
Аудио: Dolby AC3 48000Hz stereo 384kbps
Формат субтитров: softsub (SRT)

Фрагмент субтитров

284
00:21:57,717 --> 00:21:59,283
Как дела у Инес?
285
00:21:59,651 --> 00:22:01,085
У неё всё хорошо.
286
00:22:01,087 --> 00:22:01,719
Да?
287
00:22:01,721 --> 00:22:02,953
Да.
288
00:22:03,355 --> 00:22:05,315
У неё такие классные родители,
правда?
289
00:22:05,557 --> 00:22:06,590
Её мама довольно добрая,
290
00:22:06,592 --> 00:22:07,792
а её папаша долбанутый на всю башку.
291
00:22:07,794 --> 00:22:09,026
Да он просто не нравится тебе,
292
00:22:09,028 --> 00:22:11,395
потому что он не позволяет
тебе трахать свою дочь.
293
00:22:12,364 --> 00:22:15,433
Да, ладно. Но скажем так-
ничто не помешает мне сделать это.
294
00:22:15,435 --> 00:22:16,233
О, да?
295
00:22:16,235 --> 00:22:17,368
Ага.
296
00:22:17,370 --> 00:22:19,036
Вы ребята готовы пойти
на всё ради этого?
297
00:22:19,038 --> 00:22:21,305
Да, надеюсь,
что осталось недолго ждать.
298
00:22:25,143 --> 00:22:27,211
Добей пятёру, чувак.
299
00:22:27,946 --> 00:22:29,280
Я должна была приготовить тебе
охрененный подарок
300
00:22:29,282 --> 00:22:31,482
на твой день рождения, так ведь?
301
00:22:31,683 --> 00:22:33,417
Ты приготовила?
Это же моя днюха, да!
302
00:22:33,419 --> 00:22:34,885
Да, я приготовила.
303
00:22:34,887 --> 00:22:37,388
Я что-нибудь придумаю.
304
00:24:46,718 --> 00:24:48,353
Я не могу поверить, что ты
околачиваешься здесь, со мной,
305
00:24:48,378 --> 00:24:49,353
в свой день рождения.
306
00:24:51,690 --> 00:24:54,625
В этом городишке
больше нечем заняться.

MediaInfo

Format : AVI
Format/Info : Audio Video Interleave
Format profile : OpenDML
Format settings : rec
File size : 1.45 GiB
Duration : 1h 47mn
Overall bit rate : 1 929 Kbps
Writing application : AVI-Mux GUI 1.17.8.3, Feb 16 201019:42:50
Video
ID : 0
Format : MPEG-4 Visual
Format profile : Advanced Simple@L5
Format settings, BVOP : 2
Format settings, QPel : No
Format settings, GMC : No warppoints
Format settings, Matrix : Default (H.263)
Muxing mode : Packed bitstream
Codec ID : XVID
Codec ID/Hint : XviD
Duration : 1h 47mn
Bit rate : 1 539 Kbps
Width : 720 pixels
Height : 400 pixels
Display aspect ratio : 16:9
Frame rate : 23.976 fps
Color space : YUV
Chroma subsampling : 4:2:0
Bit depth : 8 bits
Scan type : Progressive
Compression mode : Lossy
Bits/(Pixel*Frame) : 0.223
Stream size : 1.15 GiB (80%)
Writing library : XviD 66
Audio
ID : 1
Format : AC-3
Format/Info : Audio Coding 3
Mode extension : CM (complete main)
Format settings, Endianness : Big
Codec ID : 2000
Duration : 1h 47mn
Bit rate mode : Constant
Bit rate : 384 Kbps
Channel(s) : 2 channels
Channel positions : Front: L R
Sampling rate : 48.0 KHz
Compression mode : Lossy
Stream size : 295 MiB (20%)
Alignment : Aligned on interleaves
Interleave, duration : 64 ms (1.53 video frames)
Interleave, preload duration : 192 ms
Title : ac3

Скриншот c названием фильма

[teatrix.ru].t10558.torrent 
Торрент: Зарегистрирован [ 2015-11-05 04:50 ] · 6A856578DD77CBC08D11034C7DCD0B9822C51805

Скачать .torrent

Скачать

15 KB

Статус: проверено
Скачан: 0 раз
Размер: 1.45 GB
terms.php



Быстрый ответ

Имя:

      
Для отправки сообщений необходимо включить JavaScript
Показать сообщения:    

Текущее время: 09-Дек 12:44

Часовой пояс: UTC + 3


Вы можете начинать темы
Вы можете отвечать на сообщения
Вы не можете редактировать свои сообщения
Вы не можете удалять свои сообщения
Вы не можете голосовать в опросах
Вы не можете прикреплять файлы к сообщениям
Вы можете скачивать файлы