На пороге Ильич (Михаил Солошенко) [2014, Россия, авторская анимация, WEBRip-AVC]


Статистика раздачи [Обновить пиров]
Размер:  71 MB   |    Зарегистрирован:  1 год 1 месяц   |    Скачан:  0 раз

Полного источника не было: Никогда

Личеров:  2  [  0 KB/s  ]   Подробная статистика пиров
 
   
 
 
 

[Цитировать]

На пороге Ильич
Страна: Россия
Жанр: авторская анимация
Год выпуска: 2014
Продолжительность: 00:08:15
Режиссёр: Михаил Солошенко
Музыка: ВИА "Южный Парк"
Описание: Гротескный фильм по сценарию Алексея Жукова (он же - ЖукА Алексеев).
Молодой человек по имени Гриша слышит звонок в дверь своей квартиры. Гриша отпирает дверь - на пороге стоит маленький Ленин, который просит его накормить и спрятать...
Качество видео: WEBRip-AVC
Формат видео: MP4
Видео: 1005 kbps, 1280х720 (16:9), 25.000 fps, AVC (High@L3.1)
Аудио: 192 kbps, 44.1 kHz, 2 channels, AAC (LC)

MediaInfo

General
Complete name : На пороге Ильич (2014).mp4
Format : MPEG-4
Format profile : Base Media / Version 2
Codec ID : mp42
File size : 70.8 MiB
Duration : 8mn 15s
Overall bit rate mode : Variable
Overall bit rate : 1 200 Kbps
Encoded date : UTC 2015-07-04 06:50:47
Tagged date : UTC 2015-07-04 06:50:47
gsst : 0
gstd : 495048
gssd : BADC294A7HM1438916193773180
gshh : r7---sn-n8v7znle.googlevideo.com
Video
ID : 1
Format : AVC
Format/Info : Advanced Video Codec
Format profile : High@L3.1
Format settings, CABAC : Yes
Format settings, ReFrames : 1 frame
Codec ID : avc1
Codec ID/Info : Advanced Video Coding
Duration : 8mn 15s
Bit rate : 1 005 Kbps
Maximum bit rate : 5 845 Kbps
Width : 1 280 pixels
Height : 720 pixels
Display aspect ratio : 16:9
Frame rate mode : Constant
Frame rate : 25.000 fps
Color space : YUV
Chroma subsampling : 4:2:0
Bit depth : 8 bits
Scan type : Progressive
Bits/(Pixel*Frame) : 0.044
Stream size : 59.3 MiB (84%)
Tagged date : UTC 2015-07-04 06:50:49
Audio
ID : 2
Format : AAC
Format/Info : Advanced Audio Codec
Format profile : LC
Codec ID : 40
Duration : 8mn 15s
Bit rate mode : Variable
Bit rate : 192 Kbps
Maximum bit rate : 202 Kbps
Channel(s) : 2 channels
Channel positions : Front: L R
Sampling rate : 44.1 KHz
Compression mode : Lossy
Stream size : 11.3 MiB (16%)
Title : IsoMedia File Produced by Google, 5-11-2011
Language : English
Encoded date : UTC 2015-07-04 06:50:48
Tagged date : UTC 2015-07-04 06:50:49

Скриншот c названием фильма

Скриншоты

[teatrix.ru].t10559.torrent 
Торрент: Зарегистрирован [ 2015-11-05 16:45 ] · 7E041E780AFD95FE31DA99442E4BA691C3738B9D

Скачать .torrent

Скачать

12 KB

Статус: проверено
Скачан: 0 раз
Размер: 71 MB
terms.php



Быстрый ответ

Имя:

      
Для отправки сообщений необходимо включить JavaScript
Показать сообщения:    

Текущее время: 09-Дек 22:28

Часовой пояс: UTC + 3


Вы можете начинать темы
Вы можете отвечать на сообщения
Вы не можете редактировать свои сообщения
Вы не можете удалять свои сообщения
Вы не можете голосовать в опросах
Вы не можете прикреплять файлы к сообщениям
Вы можете скачивать файлы