Белый шарик / Badkonake sefid / The White Balloon (Джафар Панахи / Jafar Panahi) [1995, Иран, драма, семейный, DVDRip] VO + Sub Rus + Original


Статистика раздачи [Обновить пиров]
Размер:  816 MB   |    Зарегистрирован:  1 год 1 месяц   |    Скачан:  4 раза
Сидов:  2  [  0 KB/s  ]   Личеров:  2  [  0 KB/s  ]   Подробная статистика пиров
 
   
 
 
 

[Цитировать]

Белый шарик / Badkonake sefid / The White Balloon
Страна: Иран
Жанр: драма, семейный
Год выпуска: 1995
Продолжительность: 01:20:57
Перевод: Одноголосый закадровый
Cубтитры: русские, английские
Оригинальная аудиодорожка: персидский (фарси)
Режиссер: Джафар Панахи / Jafar Panahi
В ролях: Айда Мохаммадхани, Мосен Кафили, Ферештех Садре Орафай, Анна Борковска, Мохаммад Шахани, Мохаммед Бахтияр
Описание: Это добрый и светлый фильм о детях. Сюжет прост. Девочка просит у мамы деньги на золотую рыбку к Новому Году (по мусульманскому календарю). Скрепя сердце, мать раскошеливается и фильм перерастает в своеобразное детское роад-муви по Тегерану. На мой взгляд, главная фишка картины - сама главная героиня. Маленькая девочка просто потрясающа и играет, сама того не осознавая, как полноценная актриса. (FYNTIC)
Доп. информация: Фильм взят отсюда http://teatrix.ru/viewtopic.php?t=5669
Сэмпл: http://multi-up.com/1074394
Качество видео: DVDRip
Формат видео: AVI
Видео: 640x384 (1.67:1), 25 fps, XviD Final 1.0.3 (build 37) ~1104 kbps avg, 0.18 bit/pixel
Аудио 1: 48 kHz, MPEG Layer 3, 2 ch, ~192.00 kbps avg(русский)
Аудио 2: 32 kHz, MPEG Layer 3, 2 ch, ~96.00 kbps avg(персидский (фарси))
Формат субтитров: softsub (SRT)
Доп. информация о субтитрах: Русские внешние (FYNTIC), английские

MediaInfo

Общее
Полное имя : F:\С моей озвучкой\Белый шарик\The White Balloon.avi
Формат : AVI
Формат/Информация : Audio Video Interleave
Размер файла : 815 Мбайт
Продолжительность : 1 ч. 20 м.
Общий поток : 1408 Кбит/сек
Программа кодирования : VirtualDubModRus 1.5.10.2 (build 2542/release)
Библиотека кодирования : VirtualDubMod build 2542/release
Видео
Идентификатор : 0
Формат : MPEG-4 Visual
Профиль формата : Advanced Simple@L5
Параметр BVOP формата : 2
Параметр QPel формата : Нет
Параметр GMC формата : Без точки перехода
Параметр матрицы формата : Default (H.263)
Режим смешивания : Сжатый битовый поток
Идентификатор кодека : XVID
Идентификатор кодека/Подсказка : XviD
Продолжительность : 1 ч. 20 м.
Битрейт : 1106 Кбит/сек
Ширина : 640 пикселей
Высота : 384 пикселя
Соотношение сторон : 1,667
Частота кадров : 25,000 кадров/сек
Цветовое пространство : YUV
Субдискретизация насыщенности : 4:2:0
Битовая глубина : 8 бит
Тип развёртки : Прогрессивная
Метод сжатия : С потерями
Бит/(Пиксели*Кадры) : 0.180
Размер потока : 640 Мбайт (79%)
Библиотека кодирования : XviD 1.0.3 (UTC 2004-12-20)
Аудио #1
Идентификатор : 1
Формат : MPEG Audio
Версия формата : Version 1
Профиль формата : Layer 3
Режим : Joint stereo
Расширение режима : MS Stereo
Идентификатор кодека : 55
Идентификатор кодека/Подсказка : MP3
Продолжительность : 1 ч. 20 м.
Вид битрейта : Постоянный
Битрейт : 192 Кбит/сек
Каналы : 2 канала
Частота : 48,0 КГц
Метод сжатия : С потерями
Размер потока : 111 Мбайт (14%)
Выравнивание : Соединение по промежуткам
Продолжительность промежутка : 40 мс. (1,00 видеокадр)
Время предзагрузки промежутка : 504 мс.
Библиотека кодирования : LAME3.96
Аудио #2
Идентификатор : 2
Формат : MPEG Audio
Версия формата : Version 1
Профиль формата : Layer 3
Режим : Joint stereo
Расширение режима : MS Stereo
Идентификатор кодека : 55
Идентификатор кодека/Подсказка : MP3
Продолжительность : 1 ч. 20 м.
Вид битрейта : Постоянный
Битрейт : 96,0 Кбит/сек
Каналы : 2 канала
Частота : 32,0 КГц
Метод сжатия : С потерями
Размер потока : 55,6 Мбайт (7%)
Выравнивание : Соединение по промежуткам
Продолжительность промежутка : 40 мс. (1,00 видеокадр)
Время предзагрузки промежутка : 504 мс.

Скриншоты

[teatrix.ru].t10565.torrent 
Торрент: Зарегистрирован [ 2015-11-06 09:20 ] · 4539A76FE26BE42252699849AD537D5E70FE13FD

Скачать .torrent

Скачать

17 KB

Статус: проверено
Скачан: 4 раз
Размер: 816 MB
terms.php



Быстрый ответ

Имя:

      
Для отправки сообщений необходимо включить JavaScript
Показать сообщения:    

Текущее время: 08-Дек 17:22

Часовой пояс: UTC + 3


Вы можете начинать темы
Вы можете отвечать на сообщения
Вы не можете редактировать свои сообщения
Вы не можете удалять свои сообщения
Вы не можете голосовать в опросах
Вы не можете прикреплять файлы к сообщениям
Вы можете скачивать файлы