Убийца / Nie yin niang (Хоу Сяосянь / Hou Hsiao-hsien) [2015, Тайвань, Китай, Гонконг, Франция, боевик, драма, WEB-DLRip] Sub Rus + original


Статистика раздачи [Обновить пиров]
Размер:  1.46 GB   |    Зарегистрирован:  1 год 1 месяц   |    Скачан:  0 раз
Сидов:  55  [  0 KB/s  ]   Личеров:  3  [  0 KB/s  ]   Подробная статистика пиров
 
   
 
 

[Цитировать]

Убийца / Nie yin niang / The Assassin
Страна: Тайвань, Китай, Гонконг, Франция
Жанр: боевик, драма
Год выпуска: 2015
Продолжительность: 01:46:25
Перевод: Субтитры - Skuf
Cубтитры: русские, китайские (вшитые)
Оригинальная аудиодорожка: китайский

Режиссер: Хоу Сяосянь / Hou Hsiao-hsien
В ролях: Шу Ци, Чан Чэнь, Сатоси Цумабуки, Шао-Хуань Чанг, Никки Ши, Этан Жуань, Фэнг Мей, Дахун Ни, Фанг-Ю Шей, Ших Чун
Описание: Древний Китай. Правление династии Тан. Главная героиня - одна из лучших наемных убийц тех времен. Она не знает жалости и пощады. Но однажды она влюбляется в молодого человека, которого ей приказали убить...
Качество видео: WEB-DLRip
Формат видео: AVI
Видео: 672x480 (1.40:1), 24 fps, XviD build 73 ~1757 kbps avg, 0.23 bit/pixel
Аудио: 48 kHz, AC3 Dolby Digital, 2/0 (L,R) ch, ~192 kbps

Фрагмент субтитров

165
00:40:54,531 --> 00:40:56,740
Она хотела, чтобы я узнал ее.
166
00:40:59,531 --> 00:41:00,531
Кого?
167
00:41:00,698 --> 00:41:01,823
Йиньянь.
168
00:41:02,531 --> 00:41:05,531
Она хотела, чтобы я узнал ее перед тем, как она отнимет мою жизнь.
169
00:41:05,781 --> 00:41:07,990
Она хочет, чтобы я узнал, почему.
170
00:41:38,531 --> 00:41:40,365
Эти нефриты
171
00:41:42,281 --> 00:41:45,615
дали моей матери, когда она выходила замуж за представителя клана Вейбо.
172
00:41:47,156 --> 00:41:48,823
Когда я вырос,
173
00:41:49,281 --> 00:41:52,906
мать отдала один нефрит мне, а другой - Йиньянь.
174
00:41:54,406 --> 00:41:55,823
По нефриту каждому,
175
00:41:56,448 --> 00:41:58,448
она обручила нас.
176
00:42:01,490 --> 00:42:05,615
Мать хотела, чтобы мы поженились, когда Йиньянь исполнится 15.
177
00:42:08,240 --> 00:42:09,198
На следующий год
178
00:42:10,240 --> 00:42:13,490
Юань, правитель Минь, сформировал союз с Вейбо.
179
00:42:13,990 --> 00:42:17,031
Отец хотел укрепить союз свадьбой.
180
00:42:21,615 --> 00:42:24,490
Я был рожден от наложницы, Мать усыновила меня.
181
00:42:25,365 --> 00:42:28,073
Чтобы быть уверенной, что я унаследую Вейбо,
182
00:42:29,865 --> 00:42:31,865
Мать нарушила обещание, данное Йиньянь.

MediaInfo

Общее
Полное имя : H:\The.Assassin.2015.web-dlrip_[1.46]_[teko]\The.Assassin.2015.web-dlrip_[1.46].avi
Формат : AVI
Формат/Информация : Audio Video Interleave
Размер файла : 1,46 Гбайт
Продолжительность : 1 ч. 46 м.
Общий поток : 1959 Кбит/сек
Программа кодирования : VirtualDubMod 1.5.10.3 | www.virtualdub-fr.org || (build 2550/release)
Библиотека кодирования : VirtualDubMod build 2550/release
Видео
Идентификатор : 0
Формат : MPEG-4 Visual
Профиль формата : Advanced Simple@L5
Параметр BVOP формата : 1
Параметр QPel формата : Нет
Параметр GMC формата : Без точки перехода
Параметр матрицы формата : Выборочная
Идентификатор кодека : XVID
Идентификатор кодека/Подсказка : XviD
Продолжительность : 1 ч. 46 м.
Битрейт : 1758 Кбит/сек
Ширина : 672 пикселя
Высота : 480 пикселей
Соотношение сторон : 1,400
Частота кадров : 24,000 кадра/сек
Цветовое пространство : YUV
Субдискретизация насыщенности : 4:2:0
Битовая глубина : 8 бит
Тип развёртки : Прогрессивная
Метод сжатия : С потерями
Бит/(Пиксели*Кадры) : 0.227
Размер потока : 1,31 Гбайт (90%)
Библиотека кодирования : XviD 73
Аудио
Идентификатор : 1
Формат : AC-3
Формат/Информация : Audio Coding 3
Расширение режима : CM (complete main)
Параметр Endianness формата : Big
Идентификатор кодека : 2000
Продолжительность : 1 ч. 46 м.
Вид битрейта : Постоянный
Битрейт : 192 Кбит/сек
Каналы : 2 канала
Расположение каналов : Front: L R
Частота : 48,0 КГц
Битовая глубина : 16 бит
Метод сжатия : С потерями
Размер потока : 146 Мбайт (10%)
Выравнивание : Разделение по промежуткам
Продолжительность промежутка : 42 мс. (1,00 видеокадр)
Время предзагрузки промежутка : 500 мс.
[teatrix.ru].t10570.torrent 
Торрент: Зарегистрирован [ 2015-11-06 13:30 ] · 34B5D24D47FD9FE09105CC55FF8DD17CDFE6695A

Скачать .torrent

Скачать

15 KB

Статус: проверено
Скачан: 0 раз
Размер: 1.46 GB
terms.php



Быстрый ответ

Имя:

      
Для отправки сообщений необходимо включить JavaScript
Показать сообщения:    

Текущее время: 10-Дек 04:09

Часовой пояс: UTC + 3


Вы можете начинать темы
Вы можете отвечать на сообщения
Вы не можете редактировать свои сообщения
Вы не можете удалять свои сообщения
Вы не можете голосовать в опросах
Вы не можете прикреплять файлы к сообщениям
Вы можете скачивать файлы