Гран па в белую ночь / Grand Pas in the White Night (Морис Бежар / Maurice Bejart / Maurice Béjart, Юрий Серов, Олег Виноградов) [1987, Modern Ballet, документальный, DVDRip] DVO


 

[Цитировать]

Гран па в белую ночь
Grand Pas in the White Night- Год выпуска: 1987
Лейбл: Лентелефильм
Страна-производитель: СССР, Франция, Италия
Жанр: Modern Ballet, документальный
Продолжительность: 01:03:50
Перевод: профессиональный (двухголосый закадровый)
Язык: русский, французский
Субтитры: нет
Режиссер/Хореограф: Морис Бежар / Maurice Béjart, Юрий Серов, Олег Виноградов
Исполнители: Эрик Вю-Ан, Хорхе Донн, Филип Лизон, Мишель Гаскар, Линн Шарль, Алтынай Асылмуратова, Екатерина Максимова, Галина Мезенцева, Ольга Ченчикова, Владимир Васильев, Фарух Рузиматов, Татьяна Терехова, труппа "Балет ХХ века", артисты Академического театра оперы и балета им. С.М. Кирова
Треклист:
01. Дон Кихот (Людвиг Минкус - Мариус Петипа) - вариации из I акта
Исп. Татьяна Терехова, Фарух Рузиматов
02. Греческая сюита (Микис Теодоракис, Манос Хадидакис - Морис Бежар) – отрывок
Исп. Мишель Гаскар, ансамбль
03. Наш Фауст (Иоганн Себастьян Бах - Морис Бежар) – дуэт
Исп. Ольга Ченчикова, Евгений Нефф
04. 1830 (Джакомо Мейербер, Джузеппе Верди - Морис Бежар) – отрывок
Исп. Фарух Рузиматов, Махар Вазиев, ансамбль
05. Арепо (Хьюго Ле Бар, Шарль Гуно - Морис Бежар) – отрывок
Исп. Эрик Вю-Ан, Линн Чарльз
06. Русский граф (Хьюго Ле Бар - Морис Бежар) – отрывок
Исп. ансамбль
07. Ромео и Джульетта (Морис Бежар) – отрывок
Исп. Екатерина Максимова, Владимир Васильев
08. Посвящается Фреду Астеру
Исп. Владимир Васильев
09. Тщетная предосторожность (Фердинанд Герольд - Олег Виноградов) – дуэт
Исп. Линн Чарльз, Э. Дирманн
10. Витязь в тигровой шкуре (Олег Виноградов) – отрывок
Исп. Галина Мезенцева, Татьяна Арискина, Евгений Нефф, Эльдар Алиев
11. Щелкунчик (Петр Ильич Чайковский - Василий Вайнонен) – дуэт
Исп. Катаржина Гданек, Рубен Баш
12. Весна священная (Игорь Стравинский - Морис Бежар) – отрывок
Исп. Эрик Вю-Ан, Грасия Галанте
13. Гелиогабал (африканский фольклор - Морис Бежар) – дуэт
Исп. Алтынай Асылмуратова, Фарух Рузиматов
14. Баядерка (Людвиг Минкус - Мариус Петипа) - отрывок из "Царства теней"
Исп. ансамбль
15. Влюбленный солдат (Морис Бежар)
Исп. Хорхе Донн, Фарух Рузиматов, Вадим Гуляев, Мишель Гаскар
Описание: В июне 1987 Джанни Версаче вместе с Морисом Бежаром посетил Россию, он создал костюмы для балета "Белые ночи танца в Ленинграде", показанного по каналу Интервидения на Францию и Италию в прямом эфире. Олег Виноградов - Главный балетмейстер Государственного Академического театра оперы и балета имени С.Кирова - лично руководил съёмками. В результате были сняты три фильма: "Белые ночи танца в Ленинграде" (продолжительностью 82 минуты, содержащий как постановки М. Бежара, так и О. Виноградова), "Гран па в Белую ночь" (63 минуты) и "Хореография Мориса Бежара" (32 минуты).
Идея фильма родилась у французского телекомментатора - соединить в одной программе две труппы в пору белых ночей - когда он увидел красоту города в эту загадочную пору. Многое из того, что происходило во время съемок, шло в прямом эфире на Францию и Италию. Фильм снимался 10 дней. Это было не самое лучшее ленинградское лето - холодно, дожди. Не смотря на это репетиции и съемки шли своим чередом, и руководил ими Олег Виноградов. Именно он был инициатором приглашения Бежара и его труппы в Ленинград. Огромной сценической площадкой для двух трупп стал сам город - его площади, соборы, потаенные уголки парков, даже стрелка Васильевского острова. Съемки фильма заканчивались в студии телевидения, где собрались все артисты - и русские и французские, а солисты с большим воодушевлением исполнили совместно номер в постановке Бежара “Влюбленный солдат”. (по материалам портала kino-teatr.ru и Маленькой балетной энциклопедии)
Качество видео: DVDRip
Формат/Контейнер: AVI
Видео кодек: XviD
Аудио кодек: AC3
Видео поток: XviD, 704x528 (1.33:1), 23.976 fps, ATI YVU12 4:2:0 Planar ~1803 kbps avg, 0.20 bit/pixel
Аудио поток: 48 kHz, AC3 Dolby Digital, 3/2 (L,C,R,l,r) + LFE ch, ~448 kbps

MediaInfo

Полное имя                               : H:\My Torrents\[apreder]Grand_Pas_in_the_White_Night(1987)DVDRip.avi
Формат                                   : AVI
Формат/Информация                        : Audio Video Interleave
Размер файла                             : 1,01 Гбайт
Продолжительность                        : 1 ч. 3 м.
Общий поток                              : 2261 Кбит/сек
Программа кодирования                    : VirtualDubMod 1.5.10.3 | www.virtualdub-fr.org || (build 2550/release)
Библиотека кодирования                   : VirtualDubMod build 2550/release
Видео
Идентификатор                            : 0
Формат                                   : MPEG-4 Visual
Профиль формата                          : Advanced Simple@L5
Параметр BVOP формата                    : 2
Параметр QPel формата                    : Нет
Параметр GMC формата                     : Без точки перехода
Параметр матрицы формата                 : Default (H.263)
Режим смешивания                         : Сжатый битовый поток
Идентификатор кодека                     : XVID
Идентификатор кодека/Подсказка           : XviD
Продолжительность                        : 1 ч. 3 м.
Битрейт                                  : 1804 Кбит/сек
Ширина                                   : 704 пикселя
Высота                                   : 528 пикселей
Соотношение сторон                       : 4:3
Частота кадров                           : 23,976 кадра/сек
Цветовое пространство                    : YUV
Субдискретизация насыщенности            : 4:2:0
Битовая глубина                          : 8 бит
Тип развёртки                            : Прогрессивная
Метод сжатия                             : С потерями
Бит/(Пиксели*Кадры)                      : 0.202
Размер потока                            : 824 Мбайт (80%)
Библиотека кодирования                   : XviD 64
Аудио
Идентификатор                            : 1
Формат                                   : AC-3
Формат/Информация                        : Audio Coding 3
Расширение режима                        : CM (complete main)
Параметр Endianness формата              : Big
Идентификатор кодека                     : 2000
Продолжительность                        : 1 ч. 3 м.
Вид битрейта                             : Постоянный
Битрейт                                  : 448 Кбит/сек
Каналы                                   : 6 каналов
Расположение каналов                     : Front: L C R, Side: L R, LFE
Частота                                  : 48,0 КГц
Битовая глубина                          : 16 бит
Метод сжатия                             : С потерями
Задержка видео                           : 7 мс.
Размер потока                            : 205 Мбайт (20%)
Выравнивание                             : Разделение по промежуткам
Продолжительность промежутка             : 42  мс. (1,00 видеокадр)
Время предзагрузки промежутка            : 500  мс.

Скриншоты - резерв






Показать сообщения:    

Текущее время: 11-Дек 13:03

Часовой пояс: UTC + 3


Вы не можете начинать темы
Вы не можете отвечать на сообщения
Вы не можете редактировать свои сообщения
Вы не можете удалять свои сообщения
Вы не можете голосовать в опросах
Вы не можете прикреплять файлы к сообщениям
Вы не можете скачивать файлы