Хореография Мориса Бежара - Греческая сюита, Арепо, 1830 год / Une Choregraphie de Maurice Bejart - Zorba le Grec Suite, Arepo, 1830 (Юрий Серов, Олег Виноградов) [1987, Modern Ballet, DVB]


 

[Цитировать]

Хореография Мориса Бежара
Une Chorégraphie de Maurice Béjart- Год выпуска: 1987
Лейбл: Лентелефильм
Страна-производитель: СССР, Франция, Италия
Жанр: Modern Ballet
Продолжительность: 00:31:34
Перевод: не требуется
Субтитры: нет
Режиссер/Хореограф: Юрий Серов, Олег Виноградов
Исполнители: Филип Лизон, Мишель Гаскар, труппа "Балет ХХ века", Эрик Вю-Ан, Линн Шарль, Фарух Рузиматов, Эльдар Алиев, артисты Академического театра оперы и балета им. С.М. Кирова
Треклист:
1. Греческая сюита (Манос Хадидакис - Микис Теодоракис)
исп. Филип Лизон, Мишель Гаскар и труппа "Балет ХХ века"
2. Арепо (Хьюго Ле Бар - Шарль Гуно)
исп. Эрик Вю-Ан и Линн Шарль
3. 1830 год (Джакомо Мейербер - Джузеппе Верди)
исп. Фарук Рузиматов, Эльдар Алиев и артисты Академического театра оперы и балета им. С.М. Кирова
Описание: В июне 1987 Джанни Версаче вместе с Морисом Бежаром посетил Россию, он создал костюмы для балета "Белые ночи танца в Ленинграде", показанного по каналу Интервидения на Францию и Италию в прямом эфире. Олег Виноградов - Главный балетмейстер Государственного Академического театра оперы и балета имени С.Кирова - лично руководил съёмками. В результате были сняты три фильма: "Белые ночи танца в Ленинграде" (продолжительностью 82 минуты, содержащий как постановки М. Бежара, так и О. Виноградова), "Гран па в Белую ночь" (63 минуты) и "Хореография Мориса Бежара", состоящий из трех постановок Бежара.- "Арепо" - съёмки во Дворце Шувалова. Древнейший из сохранившихся палиндромов написан на латыни приблизительно в 4 веке нашей эры: Sator Arepo tenet opera rotas ("Сеятель Арепо с трудом держит колёса"). Эту фразу обычно записывают в виде квадрата. В таком виде палиндром читается четырьмя способами: слева направо, справа налево, сверху вниз и снизу вверх. Этому квадрату в древности приписывали некую магическую силу. Считалось, что составляющие его слова спасают от болезней и защищают от злых духов. Квадраты с "сеятелем Арепо" высекали на стенах храмов и дворцов, а в среденевековье - даже на фасадах христианских церквей.-Доп. информация: Собственная запись со спутника (канал "Время: Далекое и близкое", пакет НТВ+).
Качество видео: DVB
Формат/Контейнер: MPG
Видео кодек: MPEG2
Аудио кодек: MP2
Видео поток: MPEG Video 2, 720x576@768x576 (4:3), 25 fps, ~4048 kbps avg
Аудио поток: 48 kHz, MPEG Audio 2, 2 ch, ~192.00 kbps avg

MediaInfo

Полное имя                               : H:\My Torrents\[apreder]Une_Choregraphie_ de_Maurice_Bejart(1987)DVB.mpg
Формат                                   : MPEG-PS
Размер файла                             : 977 Мбайт
Продолжительность                        : 31 м.
Режим общего битрейта                    : Переменный
Общий поток                              : 4326 Кбит/сек
Видео
Идентификатор                            : 224 (0xE0)
Формат                                   : MPEG Video
Версия формата                           : Version 2
Профиль формата                          : Main@Main
Параметр BVOP формата                    : Да
Параметр матрицы формата                 : Выборочная
Параметр GOP формата                     : M=3, N=12
Продолжительность                        : 31 м.
Вид битрейта                             : Переменный
Битрейт                                  : 4048 Кбит/сек
Максимальный битрейт                     : 5000 Кбит/сек
Ширина                                   : 720 пикселей
Высота                                   : 576 пикселей
Соотношение сторон                       : 4:3
Частота кадров                           : 25,000 кадров/сек
Стандарт вещания                         : PAL
Цветовое пространство                    : YUV
Субдискретизация насыщенности            : 4:2:0
Битовая глубина                          : 8 бит
Тип развёртки                            : Чересстрочная
Порядок развёртки                        : Верхнее поле первое
Метод сжатия                             : С потерями
Бит/(Пиксели*Кадры)                      : 0.390
Размер потока                            : 915 Мбайт (94%)
Аудио
Идентификатор                            : 192 (0xC0)
Формат                                   : MPEG Audio
Версия формата                           : Version 1
Профиль формата                          : Layer 2
Продолжительность                        : 31 м.
Вид битрейта                             : Постоянный
Битрейт                                  : 192 Кбит/сек
Каналы                                   : 2 канала
Частота                                  : 48,0 КГц
Метод сжатия                             : С потерями
Задержка видео                           : -366 мс.
Размер потока                            : 43,4 Мбайт (4%)

Скриншоты

Скриншоты анаморфированные




Показать сообщения:    

Текущее время: 08-Дек 07:05

Часовой пояс: UTC + 3


Вы не можете начинать темы
Вы не можете отвечать на сообщения
Вы не можете редактировать свои сообщения
Вы не можете удалять свои сообщения
Вы не можете голосовать в опросах
Вы не можете прикреплять файлы к сообщениям
Вы не можете скачивать файлы