Ложь во спасение (Глеб Панфилов) [2015, драма, DVB, AVC] Московский театр "Ленком"


 

[Цитировать]

Ложь во спасение (2 действия)
Название театра: Московский театр "Ленком"
Жанр: мелодрама
Год выпуска: 2015
Продолжительность: 01:10:29 + 01:01:04
Режиссёр: Глеб Панфилов
В ролях: Инна Чурикова, Виктор Раков, Ирина Серова, Анна Зайкова, Игорь Коняхин, Алексей Поляков
Описание: В основу спектакля Глеба Панфилова «Ложь во спасение» положена пьеса «Деревья умирают стоя» испанского драматурга Алехандро Касоны. Режиссер изрядно поработал над сценической редакцией этого литературного произведения, в результате чего комедия превратилась в мелодраму, язык изрядно осовременился, а действие разворачивается в наши дни.
В один офис, неизбежными атрибутами которого являются компьютер, мобильные телефоны и плазменные панели, приходит странный господин. И просит директора помочь ему в одном не совсем обычном деле. Когда-то господин Бальбоа (Виктор Раков) выгнал из дома своего непутевого внука. Жена господина Бальбоа очень переживала, и, любя ее, он стал присылать бедной женщине письма якобы от любимого внука. Так длилось много лет, пока не наступил тот самый роковой момент, когда встреча бабушки и внука уже не может быть отложена. Так в доме, где царствует Бабушка, появляются два самозванца – мнимый внук Маурисьо (Игорь Коняхин) и его «жена» Изабелла (Анна Зайкова). Бабушка счастлива и, кажется, ничего не подозревает. Но это только на первый взгляд…
Доп. информация:
Запись потока *.ts со спутника ABS-2, 75° в.д., ремукс в *.mkv программой VideoReDo.
Семпл: здесь
Качество видео: DVB
Формат видео: MKV
Видео: Advanced Video Codec, 720(768)x576 (4:3), 25,000 кадров/сек, 3087 Кбит/сек
Аудио: MPEG Audio, 48,0 КГц, 192 Кбит/сек, 2 канала

MediaInfo

Общее
Уникальный идентификатор : 202894901907621363532635566186525756278 (0x98A422FFBCB8B3EA77954E3798CE0B76)
Полное имя : T:\MPG\ЛОЖЬ ВО СПАСЕНИЕ\ЛОЖЬ ВО СПАСЕНИЕ 1 (КУЛЬТУРА 75).mkv
Формат : Matroska
Версия формата : Version 2
Размер файла : 1,65 Гбайт
Продолжительность : 1 ч. 10 м.
Общий поток : 3346 Кбит/сек
Программа кодирования : Lavf52.64.2
Библиотека кодирования : Lavf52.64.2
Видео
Идентификатор : 1
Формат : AVC
Формат/Информация : Advanced Video Codec
Профиль формата : High@L3.0
Параметр CABAC формата : Да
Параметр ReFrames формата : 4 кадра
Идентификатор кодека : V_MPEG4/ISO/AVC
Продолжительность : 1 ч. 10 м.
Битрейт : 3087 Кбит/сек
Ширина : 720 пикселей
Высота : 576 пикселей
Соотношение сторон : 4:3
Соотношение сторон в оригинале : 4:3
Режим частоты кадров : Постоянный
Частота кадров : 25,000 кадров/сек
Стандарт вещания : PAL
Цветовое пространство : YUV
Субдискретизация насыщенности : 4:2:0
Битовая глубина : 8 бит
Тип развёртки : MBAFF
Бит/(Пиксели*Кадры) : 0.298
Размер потока : 1,52 Гбайт (92%)
Default : Да
Forced : Нет
Аудио
Идентификатор : 2
Формат : MPEG Audio
Версия формата : Version 1
Профиль формата : Layer 2
Идентификатор кодека : A_MPEG/L2
Идентификатор кодека/Подсказка : MP2
Продолжительность : 1 ч. 10 м.
Вид битрейта : Постоянный
Битрейт : 192 Кбит/сек
Каналы : 2 канала
Частота : 48,0 КГц
Метод сжатия : С потерями
Размер потока : 96,8 Мбайт (6%)
Язык : English
Default : Да
Forced : Нет
Общее
Уникальный идентификатор : 45392487122478062568998152892910932698 (0x22264667B4ECD309699651C4C41C12DA)
Полное имя : T:\MPG\ЛОЖЬ ВО СПАСЕНИЕ\ЛОЖЬ ВО СПАСЕНИЕ 2 (КУЛЬТУРА 75).mkv
Формат : Matroska
Версия формата : Version 2
Размер файла : 1,43 Гбайт
Продолжительность : 1 ч. 1 м.
Общий поток : 3344 Кбит/сек
Программа кодирования : Lavf52.64.2
Библиотека кодирования : Lavf52.64.2
Видео
Идентификатор : 1
Формат : AVC
Формат/Информация : Advanced Video Codec
Профиль формата : High@L3.0
Параметр CABAC формата : Да
Параметр ReFrames формата : 4 кадра
Идентификатор кодека : V_MPEG4/ISO/AVC
Продолжительность : 1 ч. 1 м.
Битрейт : 3085 Кбит/сек
Ширина : 720 пикселей
Высота : 576 пикселей
Соотношение сторон : 4:3
Соотношение сторон в оригинале : 4:3
Режим частоты кадров : Постоянный
Частота кадров : 25,000 кадров/сек
Стандарт вещания : PAL
Цветовое пространство : YUV
Субдискретизация насыщенности : 4:2:0
Битовая глубина : 8 бит
Тип развёртки : MBAFF
Бит/(Пиксели*Кадры) : 0.298
Размер потока : 1,32 Гбайт (92%)
Default : Да
Forced : Нет
Аудио
Идентификатор : 2
Формат : MPEG Audio
Версия формата : Version 1
Профиль формата : Layer 2
Режим : Joint stereo
Расширение режима : Intensity Stereo + MS Stereo
Идентификатор кодека : A_MPEG/L2
Идентификатор кодека/Подсказка : MP2
Продолжительность : 1 ч. 1 м.
Вид битрейта : Постоянный
Битрейт : 192 Кбит/сек
Каналы : 2 канала
Частота : 48,0 КГц
Метод сжатия : С потерями
Размер потока : 83,9 Мбайт (6%)
Язык : English
Default : Да
Forced : Нет

Скриншот с названием постановки

Скриншоты




Показать сообщения:    

Текущее время: 10-Дек 02:17

Часовой пояс: UTC + 3


Вы не можете начинать темы
Вы не можете отвечать на сообщения
Вы не можете редактировать свои сообщения
Вы не можете удалять свои сообщения
Вы не можете голосовать в опросах
Вы не можете прикреплять файлы к сообщениям
Вы не можете скачивать файлы