Голова-ластик / Eraserhead (Дэвид Линч / David Lynch) [1977, США, Фантастика, Фэнтези, Драма, Сюрреализм, 2DVD9 (Custom)] AVO (Сергей Визгунов, поздний +ранний перевод)+ Sub Eng, Rus(2 вида) + Original Eng / Criterion Collection#725


Статистика раздачи [Обновить пиров]
Размер:  15.68 GB   |    Зарегистрирован:  1 год   |    Скачан:  0 раз

Полного источника не было: Никогда

Личеров:  2  [  0 KB/s  ]   Подробная статистика пиров
 
   
 
 
 

[Цитировать]

Голова-ластик / Eraserhead / Criterion Collection#725«A dream of dark and troubling things»Диск 1 Страна:США
Студия:American Film Institute (AFI), Libra Films.
Жанр:Фантастика, Фэнтези, Драма, Сюрреализм
Год выпуска:1977
Продолжительность:01:29:12
Производитель:The Criterion Collection #725
Перевод 1:Авторский (одноголосый закадровый) Сергей Визгунов, поздний переводПеревод 2:Авторский (одноголосый закадровый) Сергей Визгунов, ранний переводCубтитры:Английские, Русские(2 вида)
Оригинальная аудиодорожка:Английский
Премьера (мир):19.03.1977
Режиссер:Дэвид Линч / David Lynch
В ролях:Джек Нэнс — Генри Спенсер
Шарлотта Стюарт — Мэри Икс
Аллен Джозеф — Мистер Икс
Джин Бейтс — Миссис Икс
Джудит Анна Робертс — Красивая женщина из комнаты напротив (№ 27)
Лорел Нир — Поющая девушка внутри батареи отопления
Джек Фиск — Мужчина на планете
Джин Лэнг — Бабушка
Описание:Нервный Генри, живущий в промышленном городке, состоящем из дыма, шума и теней, вынужден жениться на своей подруге, после того, как она заявляет, что беременна, и в итоге становится отцом маленького, не похожего на человека ребенка-мутанта. Теперь перед семьей встает проблема с выхаживанием этого чудовища…
Доп. информация:Исходник найден в сети.Русский звук и субтитры(2 вида) к фильмувзяты из раздачи Core_soul-http://www.teatrix.ru/viewtopic.php?t=6846.Русский звук к Короткометражкам Дэвида ЛинчаРеавторинг Нордер.Огромное Спасибо Всем, без чьей помощи этот релиз не состоялся бы!Продюсер:Дэвид Линч, Фред БэйкерОператор:Херберт Кардуэлл, Фредерик ЭлмсКомпозитор:Дэвид ЛинчХудожник:Дэвид ЛинчМонтаж:Дэвид Линч
Линч, Дэвид-https://ru.wikipedia.org/wiki/Линч,_Дэвид Фильм-https://ru.wikipedia.org/wiki/Голова-ластикЗнаете ли вы, что">

Это интересноЛинч, Дэвид-https://ru.wikipedia.org/wiki/Линч,_Дэвид Фильм-https://ru.wikipedia.org/wiki/Голова-ластикЗнаете ли вы, что


Награды и номинации


Рецензия

Софт

PGCDemux (извлечение).
BeSweet, Sony Vegas 9 (звук).
DVD-lab PRO 2, Subtitle Workshop (субтитры).
MuxMan (сборка). DvdReMakePro (финал).
Бонусы:Короткометражки Дэвида Линча / The Short Films of David Lynch Год выпуска:1968 - 1995Страна:СШАЖанр:Авангард
Продолжительность:(04:02) + (03:45) + (33:46) + (05:11) + (04:05) + (01:03) - 51 :12
Перевод:Авторский (одноголосый закадровый) Антон Алексеев
Русские субтитры:нет
Режиссер:Дэвид Линч / David Lynch
В ролях:Пегги Линч, Ричард Вайт, Дороти МакДжинис, Вирджиния Мэйтлэнд, Роберт Чадвик, Кэтрин Колсон, Дэвид ЛинчОписание:Это короткометражные сюрреалистические работы с использованием анимации, снятые с 1968 по 1995 год. В этом сборнике вы увидите становление Линча, как режиссера и сможете по достоинству оценить его первые шаги в кинематографе, а также некоторые другие, довольно редкие моменты его творчества. Перед каждым фильмом Линч рассказывает перед камерой, что предшествовало и какие события подтолкнули его на создание фильма.
- Шесть блюющих мужиков / Six men getting sick (six times) (1968)
- Бабушка / The grandmother (1970)
- Женщина с ампутированными ногами / The amputee (1974)
- Алфавит / The alphabet (1968)
- Братья Люмьер сотоварищи / Lumier (1995)
- Трейлер.
Меню:Английский, анимированное, озвученное.Сэмпл Диск 1:https://www.sendspace.com/file/1uqoy2Тип релиза:2DVDх9(Custom)
Контейнер:DVD-Video
Видео:NTSC 16:9 (720x480) VBR, Auto Letterboxed, 6705 Кбит/сек, 23,976 кадра/сек
Аудио: Русский:AC3, 2 ch, 48.0 KHz, 224 Кбит/сек / Авторский (одноголосый закадровый) Сергей Визгунов, поздний перевод
Аудио 2: Русский:AC3, 2 ch, 48.0 KHz, 192 Кбит/сек / Авторский (одноголосый закадровый) Сергей Визгунов, ранний перевод
Аудио 3: Английский:AC3, 2 ch, 48.0 KHz, 384 Кбит/сек / ОригиналФормат субтитров: prerendered (DVD/IDX+SUB)

Dvd Info- Диск 1

Title: W(media)
Size: 7.90 Gb ( 8 281 778 KBytes ) - DVD-9
Enabled regions: 1, 2, 3, 4, 5, 6, 7, 8
VTS_01 :
Play Length:
Video: NTSC 16:9 (720x480) VBR, Auto Letterboxed
VTS_02 :
Play Length: 00:33:46
Video: NTSC 4:3 (720x480) VBR
Audio:
English (Dolby AC3, 1 ch)
VTS_03 :
Play Length: 01:29:12
Video: NTSC 16:9 (720x480) VBR, Auto Letterboxed
Audio:
Russian (Dolby AC3, 2 ch)
Russian (Dolby AC3, 2 ch)
English (Dolby AC3, 2 ch)
Subtitles:
English
Russian
Russian
VTS_04 :
Play Length: 00:04:02
Video: NTSC 4:3 (720x480) VBR
Audio:
English (Dolby AC3, 1 ch)
VTS_05 :
Play Length: 00:03:45
Video: NTSC 4:3 (720x480) VBR
Audio:
Russian (Dolby AC3, 2 ch)
English (Dolby AC3, 1 ch)
VTS_06 :
Play Length: 00:05:11
Video: NTSC 4:3 (720x480) VBR
Audio:
Russian (Dolby AC3, 2 ch)
English (Dolby AC3, 1 ch)
VTS_07 :
Play Length: 00:04:05
Video: NTSC 4:3 (720x480) VBR
Audio:
Russian (Dolby AC3, 2 ch)
English (Dolby AC3, 1 ch)
VTS_08 :
Play Length: 00:01:03
Video: NTSC 4:3 (720x480) VBR
Audio:
English (Dolby AC3, 1 ch)
VTS_09 :
Play Length: 00:01:54
Video: NTSC 4:3 (720x480) VBR
Audio:
Russian (Dolby AC3, 2 ch)
English (Dolby AC3, 1 ch)
VTS_10 :
Play Length: 00:01:14
Video: NTSC 4:3 (720x480) VBR
Audio:
Russian (Dolby AC3, 2 ch)
English (Dolby AC3, 1 ch)
VTS_11 :
Play Length: 00:05:11
Video: NTSC 4:3 (720x480) VBR
Audio:
Russian (Dolby AC3, 2 ch)
English (Dolby AC3, 1 ch)
VTS_12 :
Play Length: 00:01:45
Video: NTSC 4:3 (720x480) VBR
Audio:
Russian (Dolby AC3, 2 ch)
English (Dolby AC3, 1 ch)
VTS_13 :
Play Length: 00:02:16
Video: NTSC 4:3 (720x480) VBR
Audio:
Russian (Dolby AC3, 2 ch)
English (Dolby AC3, 1 ch)
VTS_14 :
Play Length: 00:00:46
Video: NTSC 16:9 (720x480) VBR, Auto Letterboxed
Audio:
English (Dolby AC3, 2 ch)
VTS_15 :
Play Length: 00:00:04
Video: NTSC 16:9 (720x480) VBR, Auto Letterboxed
Subtitles:
English
VTS_16 :
Play Length:
Video: NTSC 4:3 (720x480) VBR

MediaInfo- Диск 1

Общее
Полное имя : F:\Eraserhead 2 DVD-9_Custom _Criterion_#725_d1-d2\Диск 1\VIDEO_TS\VTS_03_3.VOB
Формат : MPEG-PS
Размер файла : 1024 Мбайт
Продолжительность : 18 м.
Режим общего битрейта : Переменный
Общий поток : 7658 Кбит/сек
Видео
Идентификатор : 224 (0xE0)
Формат : MPEG Video
Версия формата : Version 2
Профиль формата : Main@Main
Параметр BVOP формата : Да
Параметр матрицы формата : Выборочная
Параметр GOP формата : Variable
Продолжительность : 18 м.
Вид битрейта : Переменный
Битрейт : 6705 Кбит/сек
Максимальный битрейт : 9800 Кбит/сек
Ширина : 720 пикселей
Высота : 480 пикселей
Соотношение сторон : 16:9
Частота кадров : 23,976 кадра/сек
Цветовое пространство : YUV
Субдискретизация насыщенности : 4:2:0
Битовая глубина : 8 бит
Тип развёртки : Прогрессивная
Порядок развёртки : 2:3 Pulldown
Метод сжатия : С потерями
Бит/(Пиксели*Кадры) : 0.809
Временной код первого кадра : 01:30:48:19
Оригинал временного кода : Group of pictures header
GOP, открыто/закрыто : Открыто
Размер потока : 896 Мбайт (88%)
Аудио #1
Идентификатор : 189 (0xBD)-128 (0x80)
Формат : AC-3
Формат/Информация : Audio Coding 3
Расширение режима : CM (complete main)
Параметр Endianness формата : Big
Режим смешивания : DVD-Video
Продолжительность : 18 м.
Вид битрейта : Постоянный
Битрейт : 224 Кбит/сек
Каналы : 2 канала
Расположение каналов : Front: L R
Частота : 48,0 КГц
Метод сжатия : С потерями
Задержка видео : -659 мс.
Размер потока : 30,0 Мбайт (3%)
Аудио #2
Идентификатор : 189 (0xBD)-129 (0x81)
Формат : AC-3
Формат/Информация : Audio Coding 3
Расширение режима : CM (complete main)
Параметр Endianness формата : Big
Режим смешивания : DVD-Video
Продолжительность : 18 м.
Вид битрейта : Постоянный
Битрейт : 192 Кбит/сек
Каналы : 2 канала
Расположение каналов : Front: L R
Частота : 48,0 КГц
Метод сжатия : С потерями
Задержка видео : -659 мс.
Размер потока : 25,7 Мбайт (3%)
Аудио #3
Идентификатор : 189 (0xBD)-130 (0x82)
Формат : AC-3
Формат/Информация : Audio Coding 3
Расширение режима : CM (complete main)
Параметр Endianness формата : Big
Режим смешивания : DVD-Video
Продолжительность : 18 м.
Вид битрейта : Постоянный
Битрейт : 384 Кбит/сек
Каналы : 2 канала
Расположение каналов : Front: L R
Частота : 48,0 КГц
Метод сжатия : С потерями
Задержка видео : -691 мс.
Размер потока : 51,3 Мбайт (5%)
Текст #1
Идентификатор : 189 (0xBD)-32 (0x20)
Формат : RLE
Формат/Информация : Run-length encoding
Режим смешивания : DVD-Video
Задержка видео : 884 мс.
Текст #2
Идентификатор : 189 (0xBD)-33 (0x21)
Формат : RLE
Формат/Информация : Run-length encoding
Режим смешивания : DVD-Video
Задержка видео : 884 мс.

Скриншоты меню-Диск 1

Скриншоты фильма-Диск 1

Скриншоты доп. материалов-Диск 1


-
--"Голова-ластик": фильм о фильме / Eraserhead Stories: Full DocumentaryДиск 2 Страна: США
Жанр:Документальный
Год выпуска:2001
Продолжительность:01:25:03
Перевод:Субтитры euph0xx
Cубтитры:Русские
Оригинальная аудиодорожка:Английский
Режиссер:Дэвид Линч/David Lynch
В ролях:Дэвид Линч, Кэтрин Коулсон, Джек Нэнс
Описание:В этом документальном фильме Дэвид Линч рассказывает о создании своего первого полнометражного фильма - "Голова-ластик" (1977).Доп. информация:Исходник найден в сети.Русские субтитры взяты из раздачи euph0xx-http://www.teatrix.ru/viewtopic.php?t=4423.Реавторинг Нордер.Огромное Спасибо Всем, без чьей помощи этот релиз не состоялся бы!

Бонусы:(Без перевода)

Disc Two:
--New documentary featuring interviews with actors Charlotte Stewart and Judith Roberts, assistant to the director Catherine Coulson, and cinematographer Frederick Elmes
--Archival interviews with Lynch and members of the cast and crew
Меню:Английский, анимированное, озвученное.Сэмпл Диск 2:https://www.sendspace.com/file/mcj1z8Тип релиза:2DVDх9(Custom)
Контейнер:DVD-Video
Видео:NTSC 16:9 (720x480) VBR, 5573 Кбит/сек, 29,970 кадров/сек
Аудио:Английский:AC3, 2 ch, 48.0 KHz, 192 Кбит/сек / ОригиналФормат субтитров: prerendered (DVD/IDX+SUB)

Dvd Info- Диск 2

Title: W(media)
Size: 7.78 Gb ( 8 158 266 KBytes ) - DVD-9
Enabled regions: 1, 2, 3, 4, 5, 6, 7, 8
VTS_01 :
Play Length:
Video: NTSC 16:9 (720x480) VBR, Auto Letterboxed
VTS_02 :
Play Length: 01:25:03
Video: NTSC 4:3 (720x480) VBR
Audio:
English (Dolby AC3, 2 ch)
Subtitles:
Russian
VTS_03 :
Play Length: 00:06:47
Video: NTSC 4:3 (720x480) VBR
Audio:
English (Dolby AC3, 1 ch)
VTS_04 :
Play Length: 00:16:22
Video: NTSC 4:3 (720x480) VBR
Audio:
English (Dolby AC3, 1 ch)
VTS_05 :
Play Length: 00:01:24
Video: NTSC 4:3 (720x480) VBR
Audio:
English (Dolby AC3, 1 ch)
VTS_06 :
Play Length: 00:26:10
Video: NTSC 16:9 (720x480) VBR, Auto Letterboxed
Audio:
English (Dolby AC3, 2 ch)
VTS_07 :
Play Length: 00:17:01
Video: NTSC 4:3 (720x480) VBR
Audio:
English (Dolby AC3, 1 ch)
VTS_08 :
Play Length:
Video: NTSC 4:3 (720x480) VBR

MediaInfo- Диск 2

Общее
Полное имя : F:\Eraserhead 2 DVD-9_Custom _Criterion_#725_d1-d2\Диск 2\VIDEO_TS\VTS_02_1.VOB
Формат : MPEG-PS
Размер файла : 1024 Мбайт
Продолжительность : 24 м.
Режим общего битрейта : Переменный
Общий поток : 5882 Кбит/сек
Видео
Идентификатор : 224 (0xE0)
Формат : MPEG Video
Версия формата : Version 2
Профиль формата : Main@Main
Параметр BVOP формата : Да
Параметр матрицы формата : Выборочная
Параметр GOP формата : Variable
Структура изображения : Frame
Продолжительность : 24 м.
Вид битрейта : Переменный
Битрейт : 5573 Кбит/сек
Максимальный битрейт : 9800 Кбит/сек
Ширина : 720 пикселей
Высота : 480 пикселей
Соотношение сторон : 4:3
Частота кадров : 29,970 кадров/сек
Стандарт вещания : NTSC
Цветовое пространство : YUV
Субдискретизация насыщенности : 4:2:0
Битовая глубина : 8 бит
Тип развёртки : Чересстрочная
Порядок развёртки : Верхнее поле первое
Метод сжатия : С потерями
Бит/(Пиксели*Кадры) : 0.538
Временной код первого кадра : 01:00:00:00
Оригинал временного кода : Group of pictures header
GOP, открыто/закрыто : Открыто
GOP, открыто/закрыто на первом кадре : Закрыто
Размер потока : 970 Мбайт (95%)
Аудио
Идентификатор : 189 (0xBD)-128 (0x80)
Формат : AC-3
Формат/Информация : Audio Coding 3
Расширение режима : CM (complete main)
Параметр Endianness формата : Big
Режим смешивания : DVD-Video
Продолжительность : 24 м.
Вид битрейта : Постоянный
Битрейт : 192 Кбит/сек
Каналы : 2 канала
Расположение каналов : Front: L R
Частота : 48,0 КГц
Метод сжатия : С потерями
Размер потока : 33,4 Мбайт (3%)
Текст
Идентификатор : 189 (0xBD)-32 (0x20)
Формат : RLE
Формат/Информация : Run-length encoding
Режим смешивания : DVD-Video
Продолжительность : 24 м.
Задержка видео : 14 с.

Скриншоты меню-Диск 2


Скриншоты доп. материалов-Диск 2




[teatrix.ru].t10576.torrent 
Торрент: Зарегистрирован [ 2015-11-06 17:40 ] · 2B63409A00885FEA0C840DEDC6C308F9D3D99626

Скачать .torrent

Скачать

86 KB

Статус: проверено
Скачан: 0 раз
Размер: 15.68 GB
terms.php



Быстрый ответ

Имя:

      
Для отправки сообщений необходимо включить JavaScript
Показать сообщения:    

Текущее время: 04-Дек 21:24

Часовой пояс: UTC + 3


Вы можете начинать темы
Вы можете отвечать на сообщения
Вы не можете редактировать свои сообщения
Вы не можете удалять свои сообщения
Вы не можете голосовать в опросах
Вы не можете прикреплять файлы к сообщениям
Вы можете скачивать файлы