(Easy listening, Classical) Andre Kostelanetz & His Orchestra & Columbia Symphony & New York Philharmonic - Opera Without Words (1989), {Mascagni, Puccini, Bizet, Verdi, Saint-Saens, Leoncavallo, Humperdinck, Offenbach}, FLAC (tracks+.cue


 

[Цитировать]

André Kostelanetz & His Orchestra & Columbia Symphony Orchestra & New York Philharmonic Orchestra - Opera Without Words ~ Arias for orchestra (cd compil. 1989)
Жанр: Classical, Easy Listening
Страна-производитель диска: USA
Год издания диска: 1989
Издатель (лейбл): CBS Records
Номер по каталогу: MDK 44999
Дата записи: ?
Аудиокодек: FLAC
Тип рипа: tracks+.cue
Битрейт аудио: lossless
Продолжительность: 01:16:01
Источник: собственный рип
Наличие сканов в содержимом раздачи: фото
Треклист:
01. Pietro Mascagni / Cavalleria rusticana. Intermezzo (3:14)
02. Giacomo Puccini / La boheme. Che Gelida Manina (4:29)
03. Giacomo Puccini / La boheme. Mi Chiamano Mimi (4:56)
04. Giacomo Puccini / La boheme. O Soave Fanciulla (3:35)
05. Giacomo Puccini / La boheme. Quando M'En Vo' Soletta (2:16)
06. Giacomo Puccini / La boheme. Sono Andati (4:17)
07. Giacomo Puccini / Gianni Schicchi. O mio babbino caro (3:15)
08. Giacomo Puccini / Tosca. Recondita Armonia (2:29)
09. Giacomo Puccini / Tosca. Vissi D'Arte (2:45)
10. Giacomo Puccini / Tosca. E lucevan le stelle (3:03)
11. Giacomo Puccini / Madama Butterfly. Entrance Of Butterfly (3:01)
12. Giacomo Puccini / Madama Butterfly. Un Bel Di Vedremo (4:15)
13. Georges Bizet / Les pecheurs de perles. Je crois entendre encore (4:02)
14. Giuseppe Verdi / Aida. Celeste Aida (3:14)
15. Camille Saint-Saens / Samson et Dalila. Mon coeur s'ouvre a ta voix (4:34)
16. Georges Bizet / Carmen. Flower song (3:34)
17. Georges Bizet / Carmen. Habanera (1:55)
18. Georges Bizet / Carmen. March of the toreadors (2:08)
19. Giuseppe Verdi / Rigoletto. La donna e mobile (1:54)
20. Giuseppe Verdi / La traviata. Ah fors' e lui & sempre libera (3:44)
21. Ruggero Leoncavallo / Pagliacci. Vesti la giubba (3:34)
22. Engelbert Humperdinck / Hansel und Gretel. Children's prayer (3:09)
23. Jacques Offenbach / Les contes d'Hoffmann. Barcarolle (2:38)Исполнители:
André Kostelanetz & His Orchestra (tracks 01-07, 11-22)
Columbia Symphony Orchestra, conductor - André Kostelanetz (tracks 08-10)
New York Philharmonic Orchestra, conductor - André Kostelanetz (track 23)

Лог создания рипа

Exact Audio Copy V1.0 beta 1 from 15. November 2010
EAC extraction logfile from 6. November 2015, 19:54
Andre Kostelanetz / Opera Without Words - Arias for orchestra
Used drive : Optiarc DVD RW AD-7200A Adapter: 0 ID: 0
Read mode : SecureUtilize accurate stream : YesDefeat audio cache : YesMake use of C2 pointers : No
Read offset correction : 48Overread into Lead-In and Lead-Out : NoFill up missing offset samples with silence : YesDelete leading and trailing silent blocks : NoNull samples used in CRC calculations : YesUsed interface : Native Win32 interface for Win NT & 2000Gap handling : Appended to previous track
Used output format : User Defined EncoderSelected bitrate : 768 kBit/sQuality : HighAdd ID3 tag : NoCommand line compressor : C:\Program Files\Exact Audio Copy\Flac\flac.exeAdditional command line options : -8 -V -T "ARTIST=%a" -T "TITLE=%t" -T "ALBUM=%g" -T "DATE=%y" -T "TRACKNUMBER=%n" -T "TOTALTRACKS=%x" -T "GENRE=%m" -T "ALBUMARTIST=%v" -T "ALBUM ARTIST=%v" -T "COMMENT=EAC Secure Mode, Test & Copy, AccurateRip, FLAC -8" %s
TOC of the extracted CD
Track | Start | Length | Start sector | End sector --------------------------------------------------------- 1 | 0:00.00 | 3:14.07 | 0 | 14556 2 | 3:14.07 | 4:28.45 | 14557 | 34701 3 | 7:42.52 | 4:55.53 | 34702 | 56879 4 | 12:38.30 | 3:34.62 | 56880 | 72991 5 | 16:13.17 | 2:16.28 | 72992 | 83219 6 | 18:29.45 | 4:17.35 | 83220 | 102529 7 | 22:47.05 | 3:15.25 | 102530 | 117179 8 | 26:02.30 | 2:28.62 | 117180 | 128341 9 | 28:31.17 | 2:45.33 | 128342 | 140749 10 | 31:16.50 | 3:02.57 | 140750 | 154456 11 | 34:19.32 | 3:01.35 | 154457 | 168066 12 | 37:20.67 | 4:14.70 | 168067 | 187186 13 | 41:35.62 | 4:01.43 | 187187 | 205304 14 | 45:37.30 | 3:13.62 | 205305 | 219841 15 | 48:51.17 | 4:33.50 | 219842 | 240366 16 | 53:24.67 | 3:34.18 | 240367 | 256434 17 | 56:59.10 | 1:55.07 | 256435 | 265066 18 | 58:54.17 | 2:07.63 | 265067 | 274654 19 | 61:02.05 | 1:54.07 | 274655 | 283211 20 | 62:56.12 | 3:44.33 | 283212 | 300044 21 | 66:40.45 | 3:33.55 | 300045 | 316074 22 | 70:14.25 | 3:08.50 | 316075 | 330224 23 | 73:23.00 | 2:37.50 | 330225 | 342049
Track 1
Filename D:\Andre Kostelanetz - Opera Without Words (1989) [FLAC]\01 - Pietro Mascagni , Cavalleria rusticana. Intermezzo.wav
Pre-gap length 0:00:02.00
Peak level 43.7 % Extraction speed 2.4 X Track quality 100.0 % Test CRC 94BAD751 Copy CRC 94BAD751 Accurately ripped (confidence 2) [C85D636B] Copy OK
Track 2
Filename D:\Andre Kostelanetz - Opera Without Words (1989) [FLAC]\02 - Giacomo Puccini , La boheme. Che Gelida Manina.wav
Pre-gap length 0:00:00.62
Peak level 57.8 % Extraction speed 2.8 X Track quality 100.0 % Test CRC FD0939CD Copy CRC FD0939CD Accurately ripped (confidence 2) [BDA0EA6B] Copy OK
Track 3
Filename D:\Andre Kostelanetz - Opera Without Words (1989) [FLAC]\03 - Giacomo Puccini , La boheme. Mi Chiamano Mimi.wav
Pre-gap length 0:00:00.62
Peak level 63.4 % Extraction speed 3.1 X Track quality 100.0 % Test CRC A33007C1 Copy CRC A33007C1 Accurately ripped (confidence 2) [0AE7A0F5] Copy OK
Track 4
Filename D:\Andre Kostelanetz - Opera Without Words (1989) [FLAC]\04 - Giacomo Puccini , La boheme. O Soave Fanciulla.wav
Pre-gap length 0:00:00.63
Peak level 67.8 % Extraction speed 2.7 X Track quality 99.9 % Test CRC 4D11520B Copy CRC 4D11520B Accurately ripped (confidence 2) [CA78DEAC] Copy OK
Track 5
Filename D:\Andre Kostelanetz - Opera Without Words (1989) [FLAC]\05 - Giacomo Puccini , La boheme. Quando M'En Vo' Soletta.wav
Pre-gap length 0:00:00.62
Peak level 70.3 % Extraction speed 3.0 X Track quality 100.0 % Test CRC F9E9DFD9 Copy CRC F9E9DFD9 Accurately ripped (confidence 2) [48060B4B] Copy OK
Track 6
Filename D:\Andre Kostelanetz - Opera Without Words (1989) [FLAC]\06 - Giacomo Puccini , La boheme. Sono Andati.wav
Pre-gap length 0:00:00.63
Peak level 90.8 % Extraction speed 3.5 X Track quality 100.0 % Test CRC 9D0CE003 Copy CRC 9D0CE003 Accurately ripped (confidence 2) [F667F132] Copy OK
Track 7
Filename D:\Andre Kostelanetz - Opera Without Words (1989) [FLAC]\07 - Giacomo Puccini , Gianni Schicchi. O mio babbino caro.wav
Pre-gap length 0:00:00.63
Peak level 62.0 % Extraction speed 3.6 X Track quality 100.0 % Test CRC 31CC0DF2 Copy CRC 31CC0DF2 Accurately ripped (confidence 2) [11CF0DD8] Copy OK
Track 8
Filename D:\Andre Kostelanetz - Opera Without Words (1989) [FLAC]\08 - Giacomo Puccini , Tosca. Recondita Armonia.wav
Pre-gap length 0:00:00.03
Peak level 71.7 % Extraction speed 3.5 X Track quality 100.0 % Test CRC E591AD74 Copy CRC E591AD74 Accurately ripped (confidence 2) [DAB9731C] Copy OK
Track 9
Filename D:\Andre Kostelanetz - Opera Without Words (1989) [FLAC]\09 - Giacomo Puccini , Tosca. Vissi D'Arte.wav
Pre-gap length 0:00:00.62
Peak level 89.3 % Extraction speed 3.7 X Track quality 100.0 % Test CRC 0051BF9D Copy CRC 0051BF9D Accurately ripped (confidence 2) [56561EDC] Copy OK
Track 10
Filename D:\Andre Kostelanetz - Opera Without Words (1989) [FLAC]\10 - Giacomo Puccini , Tosca. E lucevan le stelle.wav
Pre-gap length 0:00:00.03
Peak level 85.3 % Extraction speed 3.8 X Track quality 100.0 % Test CRC C8103549 Copy CRC C8103549 Accurately ripped (confidence 2) [6096F7EA] Copy OK
Track 11
Filename D:\Andre Kostelanetz - Opera Without Words (1989) [FLAC]\11 - Giacomo Puccini , Madama Butterfly. Entrance Of Butterfly.wav
Pre-gap length 0:00:00.62
Peak level 64.4 % Extraction speed 4.0 X Track quality 100.0 % Test CRC 7ED7CEF0 Copy CRC 7ED7CEF0 Accurately ripped (confidence 2) [2220075A] Copy OK
Track 12
Filename D:\Andre Kostelanetz - Opera Without Words (1989) [FLAC]\12 - Giacomo Puccini , Madama Butterfly. Un Bel Di Vedremo.wav
Pre-gap length 0:00:00.62
Peak level 85.0 % Extraction speed 4.3 X Track quality 100.0 % Test CRC 4E639AFA Copy CRC 4E639AFA Accurately ripped (confidence 2) [8BAC117D] Copy OK
Track 13
Filename D:\Andre Kostelanetz - Opera Without Words (1989) [FLAC]\13 - Georges Bizet , Les pecheurs de perles. Je crois entendre encore.wav
Pre-gap length 0:00:00.62
Peak level 52.4 % Extraction speed 4.4 X Track quality 100.0 % Test CRC F691FF7C Copy CRC F691FF7C Accurately ripped (confidence 2) [09CB3518] Copy OK
Track 14
Filename D:\Andre Kostelanetz - Opera Without Words (1989) [FLAC]\14 - Giuseppe Verdi , Aida. Celeste Aida.wav
Pre-gap length 0:00:00.63
Peak level 94.3 % Extraction speed 4.4 X Track quality 100.0 % Test CRC 01C93CB6 Copy CRC 01C93CB6 Accurately ripped (confidence 2) [0B960790] Copy OK
Track 15
Filename D:\Andre Kostelanetz - Opera Without Words (1989) [FLAC]\15 - Camille Saint-Saens , Samson et Dalila. Mon coeur s'ouvre a ta voix.wav
Pre-gap length 0:00:00.62
Peak level 81.8 % Extraction speed 4.7 X Track quality 100.0 % Test CRC 7FA02313 Copy CRC 7FA02313 Accurately ripped (confidence 2) [86DF98C3] Copy OK
Track 16
Filename D:\Andre Kostelanetz - Opera Without Words (1989) [FLAC]\16 - Georges Bizet , Carmen. Flower song.wav
Pre-gap length 0:00:00.62
Peak level 59.0 % Extraction speed 4.8 X Track quality 100.0 % Test CRC 72EF1C52 Copy CRC 72EF1C52 Accurately ripped (confidence 2) [B8F69A66] Copy OK
Track 17
Filename D:\Andre Kostelanetz - Opera Without Words (1989) [FLAC]\17 - Georges Bizet , Carmen. Habanera.wav
Pre-gap length 0:00:00.03
Peak level 84.8 % Extraction speed 4.1 X Track quality 100.0 % Test CRC DD03148C Copy CRC DD03148C Accurately ripped (confidence 2) [543503ED] Copy OK
Track 18
Filename D:\Andre Kostelanetz - Opera Without Words (1989) [FLAC]\18 - Georges Bizet , Carmen. March of the toreadors.wav
Pre-gap length 0:00:00.62
Peak level 100.0 % Extraction speed 3.6 X Track quality 99.9 % Test CRC DBE2B4E8 Copy CRC DBE2B4E8 Accurately ripped (confidence 2) [2D68ED32] Copy OK
Track 19
Filename D:\Andre Kostelanetz - Opera Without Words (1989) [FLAC]\19 - Giuseppe Verdi , Rigoletto. La donna e mobile.wav
Pre-gap length 0:00:00.63
Peak level 87.4 % Extraction speed 4.2 X Track quality 100.0 % Test CRC EBAF7011 Copy CRC EBAF7011 Accurately ripped (confidence 2) [84008F34] Copy OK
Track 20
Filename D:\Andre Kostelanetz - Opera Without Words (1989) [FLAC]\20 - Giuseppe Verdi , La traviata. Ah fors' e lui & sempre libera.wav
Pre-gap length 0:00:00.62
Peak level 96.6 % Extraction speed 4.4 X Track quality 99.9 % Test CRC 84A5363E Copy CRC 84A5363E Accurately ripped (confidence 2) [69AAAD29] Copy OK
Track 21
Filename D:\Andre Kostelanetz - Opera Without Words (1989) [FLAC]\21 - Ruggero Leoncavallo , Pagliacci. Vesti la giubba.wav
Pre-gap length 0:00:00.58
Peak level 89.5 % Extraction speed 5.0 X Track quality 100.0 % Test CRC 29CEB288 Copy CRC 29CEB288 Accurately ripped (confidence 2) [A83977DE] Copy OK
Track 22
Filename D:\Andre Kostelanetz - Opera Without Words (1989) [FLAC]\22 - Engelbert Humperdinck , Hansel und Gretel. Children's prayer.wav
Pre-gap length 0:00:00.63
Peak level 60.5 % Extraction speed 5.1 X Track quality 100.0 % Test CRC 2428A55A Copy CRC 2428A55A Accurately ripped (confidence 2) [1D22A039] Copy OK
Track 23
Filename D:\Andre Kostelanetz - Opera Without Words (1989) [FLAC]\23 - Jacques Offenbach , Les contes d'Hoffmann. Barcarolle.wav
Pre-gap length 0:00:00.63
Peak level 76.0 % Extraction speed 5.0 X Track quality 100.0 % Test CRC 826BC2E9 Copy CRC 826BC2E9 Accurately ripped (confidence 2) [876C4C05] Copy OK
All tracks accurately ripped
No errors occurred
End of status report
==== Log checksum 59F24F47830F96BC0E665708367459D5DF742F3FB2F81DABAB82797D94CAB294 ====

Содержание индексной карты (.CUE)

REM GENRE "Operas - Excerpts, Arranged"REM DATE 1989REM DISCID 4F11D017REM COMMENT "ExactAudioCopy v1.0b1"PERFORMER "Andre Kostelanetz"TITLE "Opera Without Words - Arias for orchestra"FILE "01 - Pietro Mascagni , Cavalleria rusticana. Intermezzo.wav" WAVE TRACK 01 AUDIO TITLE "Pietro Mascagni / Cavalleria rusticana. Intermezzo" PERFORMER "Andre Kostelanetz" INDEX 01 00:00:00 TRACK 02 AUDIO TITLE "Giacomo Puccini / La boheme. Che Gelida Manina" PERFORMER "Andre Kostelanetz" INDEX 00 03:13:20FILE "02 - Giacomo Puccini , La boheme. Che Gelida Manina.wav" WAVE INDEX 01 00:00:00 TRACK 03 AUDIO TITLE "Giacomo Puccini / La boheme. Mi Chiamano Mimi" PERFORMER "Andre Kostelanetz" INDEX 00 04:27:58FILE "03 - Giacomo Puccini , La boheme. Mi Chiamano Mimi.wav" WAVE INDEX 01 00:00:00 TRACK 04 AUDIO TITLE "Giacomo Puccini / La boheme. O Soave Fanciulla" PERFORMER "Andre Kostelanetz" INDEX 00 04:54:65FILE "04 - Giacomo Puccini , La boheme. O Soave Fanciulla.wav" WAVE INDEX 01 00:00:00 TRACK 05 AUDIO TITLE "Giacomo Puccini / La boheme. Quando M'En Vo' Soletta" PERFORMER "Andre Kostelanetz" INDEX 00 03:34:00FILE "05 - Giacomo Puccini , La boheme. Quando M'En Vo' Soletta.wav" WAVE INDEX 01 00:00:00 TRACK 06 AUDIO TITLE "Giacomo Puccini / La boheme. Sono Andati" PERFORMER "Andre Kostelanetz" INDEX 00 02:15:40FILE "06 - Giacomo Puccini , La boheme. Sono Andati.wav" WAVE INDEX 01 00:00:00 TRACK 07 AUDIO TITLE "Giacomo Puccini / Gianni Schicchi. O mio babbino caro" PERFORMER "Andre Kostelanetz" INDEX 00 04:16:47FILE "07 - Giacomo Puccini , Gianni Schicchi. O mio babbino caro.wav" WAVE INDEX 01 00:00:00 TRACK 08 AUDIO TITLE "Giacomo Puccini / Tosca. Recondita Armonia" PERFORMER "Andre Kostelanetz" INDEX 00 03:15:22FILE "08 - Giacomo Puccini , Tosca. Recondita Armonia.wav" WAVE INDEX 01 00:00:00 TRACK 09 AUDIO TITLE "Giacomo Puccini / Tosca. Vissi D'Arte" PERFORMER "Andre Kostelanetz" INDEX 00 02:28:00FILE "09 - Giacomo Puccini , Tosca. Vissi D'Arte.wav" WAVE INDEX 01 00:00:00 TRACK 10 AUDIO TITLE "Giacomo Puccini / Tosca. E lucevan le stelle" PERFORMER "Andre Kostelanetz" INDEX 00 02:45:30FILE "10 - Giacomo Puccini , Tosca. E lucevan le stelle.wav" WAVE INDEX 01 00:00:00 TRACK 11 AUDIO TITLE "Giacomo Puccini / Madama Butterfly. Entrance Of Butterfly" PERFORMER "Andre Kostelanetz" INDEX 00 03:01:70FILE "11 - Giacomo Puccini , Madama Butterfly. Entrance Of Butterfly.wav" WAVE INDEX 01 00:00:00 TRACK 12 AUDIO TITLE "Giacomo Puccini / Madama Butterfly. Un Bel Di Vedremo" PERFORMER "Andre Kostelanetz" INDEX 00 03:00:48FILE "12 - Giacomo Puccini , Madama Butterfly. Un Bel Di Vedremo.wav" WAVE INDEX 01 00:00:00 TRACK 13 AUDIO TITLE "Georges Bizet / Les pecheurs de perles. Je crois entendre encore" PERFORMER "Andre Kostelanetz" INDEX 00 04:14:08FILE "13 - Georges Bizet , Les pecheurs de perles. Je crois entendre encore.wav" WAVE INDEX 01 00:00:00 TRACK 14 AUDIO TITLE "Giuseppe Verdi / Aida. Celeste Aida" PERFORMER "Andre Kostelanetz" INDEX 00 04:00:55FILE "14 - Giuseppe Verdi , Aida. Celeste Aida.wav" WAVE INDEX 01 00:00:00 TRACK 15 AUDIO TITLE "Camille Saint-Saens / Samson et Dalila. Mon coeur s'ouvre a ta voix" PERFORMER "Andre Kostelanetz" INDEX 00 03:13:00FILE "15 - Camille Saint-Saens , Samson et Dalila. Mon coeur s'ouvre a ta voix.wav" WAVE INDEX 01 00:00:00 TRACK 16 AUDIO TITLE "Georges Bizet / Carmen. Flower song" PERFORMER "Andre Kostelanetz" INDEX 00 04:32:63FILE "16 - Georges Bizet , Carmen. Flower song.wav" WAVE INDEX 01 00:00:00 TRACK 17 AUDIO TITLE "Georges Bizet / Carmen. Habanera" PERFORMER "Andre Kostelanetz" INDEX 00 03:34:15FILE "17 - Georges Bizet , Carmen. Habanera.wav" WAVE INDEX 01 00:00:00 TRACK 18 AUDIO TITLE "Georges Bizet / Carmen. March of the toreadors" PERFORMER "Andre Kostelanetz" INDEX 00 01:54:20FILE "18 - Georges Bizet , Carmen. March of the toreadors.wav" WAVE INDEX 01 00:00:00 TRACK 19 AUDIO TITLE "Giuseppe Verdi / Rigoletto. La donna e mobile" PERFORMER "Andre Kostelanetz" INDEX 00 02:07:00FILE "19 - Giuseppe Verdi , Rigoletto. La donna e mobile.wav" WAVE INDEX 01 00:00:00 TRACK 20 AUDIO TITLE "Giuseppe Verdi / La traviata. Ah fors' e lui & sempre libera" PERFORMER "Andre Kostelanetz" INDEX 00 01:53:20FILE "20 - Giuseppe Verdi , La traviata. Ah fors' e lui & sempre libera.wav" WAVE INDEX 01 00:00:00 TRACK 21 AUDIO TITLE "Ruggero Leoncavallo / Pagliacci. Vesti la giubba" PERFORMER "Andre Kostelanetz" INDEX 00 03:43:50FILE "21 - Ruggero Leoncavallo , Pagliacci. Vesti la giubba.wav" WAVE INDEX 01 00:00:00 TRACK 22 AUDIO TITLE "Engelbert Humperdinck / Hansel und Gretel. Children's prayer" PERFORMER "Andre Kostelanetz" INDEX 00 03:32:67FILE "22 - Engelbert Humperdinck , Hansel und Gretel. Children's prayer.wav" WAVE INDEX 01 00:00:00 TRACK 23 AUDIO TITLE "Jacques Offenbach / Les contes d'Hoffmann. Barcarolle" PERFORMER "Andre Kostelanetz" INDEX 00 03:07:62FILE "23 - Jacques Offenbach , Les contes d'Hoffmann. Barcarolle.wav" WAVE INDEX 01 00:00:00



Показать сообщения:    

Текущее время: 07-Дек 15:32

Часовой пояс: UTC + 3


Вы не можете начинать темы
Вы не можете отвечать на сообщения
Вы не можете редактировать свои сообщения
Вы не можете удалять свои сообщения
Вы не можете голосовать в опросах
Вы не можете прикреплять файлы к сообщениям
Вы не можете скачивать файлы