Дмитрий Хворостовский и друзья [2015, Classical | Opera Arias, HDTV 1080i]


 

[Цитировать]

Дмитрий Хворостовский и друзья
Жанр: Classical | Opera Arias
Продолжительность: 01:07:00
Год выпуска: 2015
Описание: 29 октября в Государственном Кремлевском Дворце состоится очередной концерт из цикла «Хворостовский и друзья». На этот раз Дмитрий Хворостовский выступит с известной оперной дивой, меццо-сопрано, Элиной Гаранчей. Дирижер концерта — Константин Орбелян.
За Треклист спасибо jovi4
01 - ДМИТРИЙ ХВОРОСТОВСКИЙ - Куплеты Эскамильо из оперы Жорж Бизе "Кармен"
02 - ЕЛИНА ГАРАНЧА - Хабанера из оперы Ж. Бизе "Кармен"
03 - ДМИТРИЙ ХВОРОСТОВСКИЙ - Ария Роберто из оперы Петр Чайковский "Иоланта"
04 - Оркестр театра "Новая опера" - Интермеццо из оперы Пьетро Масканьи "Сельская честь"
05 - ЕЛИНА ГАРАНЧА - Ария Сантуци из оперы П. Маскани "Сельская честь"
06 - ДМИТРИЙ ХВОРОСТОВСКИЙ и ЕЛИНА ГАРАНЧА - Дуэт Альфио и Сантуцци из оперы П. Маскани "Сельская честь"
07 - ДМИТРИЙ ХВОРОСТОВСКИЙ - Ария графа Ди Луна из оперы Джузеппе Верди "Трубадур"
08 - ДМИТРИЙ ХВОРОСТОВСКИЙ - Ария Альфонсо из оперы Гаэтано Доницетти "Фаворитка"
09 - ДМИТРИЙ ХВОРОСТОВСКИЙ и ЕЛИНА ГАРАНЧА - Дуэт Ганны и Данило из оперетты Ж. Легара "Веселая вдова"
10 - ЕЛИНА ГАРАНЧА - Ария из сарсуэлы Р. Чапи "Дочери и Зеведея"
11 - ДМИТРИЙ ХВОРОСТОВСКИЙ и ЕЛИНА ГАРАНЧА - Дуэт До Жуана и Церлины из оперы Вольфганг Амадей Моцарт "Дон Жуан"
12 - .ДМИТРИЙ ХВОРОСТОВСКИЙ - Русская народная песня "Прощай, радость"
Качество: HDTV 1080i
Контейнер: TS
Видео кодек: H.264
Аудио кодек: MP2
Видео: H264; 1920x1080 (16:9); 25.000 fps; ~7 899 Kbps
Аудио : MPEG Audio Version 1 Layer 2, 48000Hz, 2 channels stereo 192 Кбит/сек

Отчёт MediaInfo / BDInfo

GeneralID : 1 (0x1)Complete name : G:\Дмитрий Хворостовский и друзья.tsFormat : MPEG-TSFile size : 3.99 GiBDuration : 1h 7mnOverall bit rate mode : VariableOverall bit rate : 8 513 Kbps
VideoID : 2292 (0x8F4)Menu ID : 2291 (0x8F3)Format : AVCFormat/Info : Advanced Video CodecFormat profile : High@L4Format settings, CABAC : YesFormat settings, ReFrames : 4 framesFormat settings, GOP : M=4, N=32Codec ID : 27Duration : 1h 7mnBit rate : 7 899 KbpsWidth : 1 920 pixelsHeight : 1 080 pixelsDisplay aspect ratio : 16:9Frame rate : 25.000 fpsColor space : YUVChroma subsampling : 4:2:0Bit depth : 8 bitsScan type : MBAFFScan order : Top Field FirstBits/(Pixel*Frame) : 0.152Stream size : 3.70 GiB (93%)
AudioID : 2295 (0x8F7)Menu ID : 2291 (0x8F3)Format : MPEG AudioFormat version : Version 1Format profile : Layer 2Codec ID : 3Duration : 1h 7mnBit rate mode : ConstantBit rate : 192 KbpsChannel(s) : 2 channelsSampling rate : 48.0 KHzCompression mode : LossyStream size : 92.0 MiB (2%)Language : English

Скриншоты




Показать сообщения:    

Текущее время: 10-Дек 17:48

Часовой пояс: UTC + 3


Вы не можете начинать темы
Вы не можете отвечать на сообщения
Вы не можете редактировать свои сообщения
Вы не можете удалять свои сообщения
Вы не можете голосовать в опросах
Вы не можете прикреплять файлы к сообщениям
Вы не можете скачивать файлы