(Classical) Jean Sibelius - The Symphonies - Lahti Symphony Orchestra, Okko Kamu - 2015, FLAC (image+.cue) lossless


 

[Цитировать]

Jean Sibelius - The Symphonies - Lahti Symphony Orchestra, Okko Kamu
Жанр: Classical
Страна-производитель диска: Sweden
Год издания диска: 2015
Издатель (лейбл): BIS
Номер по каталогу: BIS-SACD-2076
Дата записи: 2012-2014
Аудиокодек: FLAC
Тип рипа: image+.cue
Битрейт аудио: lossless
Продолжительность: 4:00:13
Источник: собственный рип
Наличие сканов в содержимом раздачи: да
Треклист:
Jean Sibelius (1865–1957)
CD1
[1]-[4] Symphony No. 1 in E minor, Op. 39 (1898–99, rev. 1900)
[5]-[8] Symphony No. 4 in A minor, Op. 63 (1909–11)
CD2
[1]-[4] Symphony No. 2 in D major, Op. 43 (1901–02)
[5]-[7] Symphony No. 5 in E flat major, Op. 82 (1914–15, rev. 1916 & 1919)
CD3
[1]-[3] Symphony No. 3 in C major, Op. 52 (1904–07)
[4]-[7] Symphony No. 6 in D minor, Op.104 (1922–23)
[8] Symphony No. 7 in C major, Op.105 (1923–24)
Исполнители:
Lahti Symphony Orchestra (Sinfonia Lahti)
Okko Kamu
conductor

Лог создания рипа: CD1

Exact Audio Copy V1.1 from 23. June 2015
EAC extraction logfile from 31. October 2015, 17:20
Lahti Symphony Orchestra, Okko Kamu / Sibelius - The Symphonies - CD1
Used drive : HL-DT-STDVDRAM GU70N Adapter: 1 ID: 0
Read mode : SecureUtilize accurate stream : YesDefeat audio cache : YesMake use of C2 pointers : No
Read offset correction : 48Overread into Lead-In and Lead-Out : NoFill up missing offset samples with silence : YesDelete leading and trailing silent blocks : NoNull samples used in CRC calculations : YesUsed interface : Native Win32 interface for Win NT & 2000
Used output format : User Defined EncoderSelected bitrate : 128 kBit/sQuality : HighAdd ID3 tag : NoCommand line compressor : C:\Program Files (x86)\Exact Audio Copy\Flac\flac.exeAdditional command line options : -V -8 -T "Date=%year%" -T "Genre=%genre%" %source%
TOC of the extracted CD
Track | Start | Length | Start sector | End sector --------------------------------------------------------- 1 | 0:00.00 | 10:45.58 | 0 | 48432 2 | 10:45.58 | 9:21.59 | 48433 | 90566 3 | 20:07.42 | 5:35.28 | 90567 | 115719 4 | 25:42.70 | 13:01.50 | 115720 | 174344 5 | 38:44.45 | 11:24.40 | 174345 | 225684 6 | 50:09.10 | 4:57.24 | 225685 | 247983 7 | 55:06.34 | 11:54.20 | 247984 | 301553 8 | 67:00.54 | 10:20.68 | 301554 | 348121
Range status and errors
Selected range
Filename C:\temp\BIS-SACD-2076 - Sibelius - The Symphonies - Lahti SO, Kamu\CD1\Sibelius - The Symphonies - CD1.wav
Peak level 97.9 % Extraction speed 2.3 X Range quality 100.0 % Test CRC 15692B26 Copy CRC 15692B26 Copy OK
No errors occurred
AccurateRip summary
Track 1 accurately ripped (confidence 1) [E80F4DF6] (AR v2)Track 2 accurately ripped (confidence 1) [2A2FC864] (AR v2)Track 3 accurately ripped (confidence 1) [C904FFF2] (AR v2)Track 4 accurately ripped (confidence 1) [49A1D645] (AR v2)Track 5 accurately ripped (confidence 1) [4330B202] (AR v2)Track 6 accurately ripped (confidence 1) [49E21EF7] (AR v2)Track 7 accurately ripped (confidence 1) [2499F346] (AR v2)Track 8 accurately ripped (confidence 1) [86741C84] (AR v2)
All tracks accurately ripped
End of status report
==== Log checksum 7C6D3F9B5EA4FD717BD7447954F651DBBE8FEC14B0B7ABBD6927D8407148F2B2 ====

Лог создания рипа: CD2

Exact Audio Copy V1.1 from 23. June 2015
EAC extraction logfile from 31. October 2015, 20:26
Lahti Symphony Orchestra, Okko Kamu / Sibelius - The Symphonies - CD2
Used drive : HL-DT-STDVDRAM GU70N Adapter: 1 ID: 0
Read mode : SecureUtilize accurate stream : YesDefeat audio cache : YesMake use of C2 pointers : No
Read offset correction : 48Overread into Lead-In and Lead-Out : NoFill up missing offset samples with silence : YesDelete leading and trailing silent blocks : NoNull samples used in CRC calculations : YesUsed interface : Native Win32 interface for Win NT & 2000
Used output format : User Defined EncoderSelected bitrate : 128 kBit/sQuality : HighAdd ID3 tag : NoCommand line compressor : C:\Program Files (x86)\Exact Audio Copy\Flac\flac.exeAdditional command line options : -V -8 -T "Date=%year%" -T "Genre=%genre%" %source%
TOC of the extracted CD
Track | Start | Length | Start sector | End sector --------------------------------------------------------- 1 | 0:00.00 | 9:49.31 | 0 | 44205 2 | 9:49.31 | 14:33.07 | 44206 | 109687 3 | 24:22.38 | 6:13.20 | 109688 | 137682 4 | 30:35.58 | 14:39.50 | 137683 | 203657 5 | 45:15.33 | 15:16.72 | 203658 | 272429 6 | 60:32.30 | 9:36.02 | 272430 | 315631 7 | 70:08.32 | 10:17.47 | 315632 | 361953
Range status and errors
Selected range
Filename C:\temp\BIS-SACD-2076 - Sibelius - The Symphonies - Lahti SO, Kamu\CD2\Sibelius - The Symphonies - CD2.wav
Peak level 94.6 % Extraction speed 2.3 X Range quality 100.0 % Test CRC DCA7FD61 Copy CRC DCA7FD61 Copy OK
No errors occurred
AccurateRip summary
Track 1 accurately ripped (confidence 1) [16D6C69A] (AR v2)Track 2 accurately ripped (confidence 1) [5EC3FF97] (AR v2)Track 3 accurately ripped (confidence 1) [D4FA1836] (AR v2)Track 4 accurately ripped (confidence 1) [23E42A03] (AR v2)Track 5 accurately ripped (confidence 1) [5AA3036F] (AR v2)Track 6 accurately ripped (confidence 1) [A9FE1D72] (AR v2)Track 7 accurately ripped (confidence 1) [42563ACA] (AR v2)
All tracks accurately ripped
End of status report
==== Log checksum 5DB113CB07E14A45771D1A10CAF34EF11E0963F181CBF231C7A204753E0B0809 ====

Лог создания рипа: CD3

Exact Audio Copy V1.1 from 23. June 2015
EAC extraction logfile from 31. October 2015, 21:39
Lahti Symphony Orchestra, Okko Kamu / Sibelius - The Symphonies - CD3
Used drive : HL-DT-STDVDRAM GU70N Adapter: 1 ID: 0
Read mode : SecureUtilize accurate stream : YesDefeat audio cache : YesMake use of C2 pointers : No
Read offset correction : 48Overread into Lead-In and Lead-Out : NoFill up missing offset samples with silence : YesDelete leading and trailing silent blocks : NoNull samples used in CRC calculations : YesUsed interface : Native Win32 interface for Win NT & 2000
Used output format : User Defined EncoderSelected bitrate : 128 kBit/sQuality : HighAdd ID3 tag : NoCommand line compressor : C:\Program Files (x86)\Exact Audio Copy\Flac\flac.exeAdditional command line options : -V -8 -T "Date=%year%" -T "Genre=%genre%" %source%
TOC of the extracted CD
Track | Start | Length | Start sector | End sector --------------------------------------------------------- 1 | 0:00.00 | 10:19.23 | 0 | 46447 2 | 10:19.23 | 10:15.11 | 46448 | 92583 3 | 20:34.34 | 9:14.73 | 92584 | 134206 4 | 29:49.32 | 8:59.61 | 134207 | 174692 5 | 38:49.18 | 6:52.08 | 174693 | 205600 6 | 45:41.26 | 3:28.54 | 205601 | 221254 7 | 49:10.05 | 10:05.08 | 221255 | 266637 8 | 59:15.13 | 23:11.39 | 266638 | 371001
Range status and errors
Selected range
Filename C:\temp\BIS-SACD-2076 - Sibelius - The Symphonies - Lahti SO, Kamu\CD3\Sibelius - The Symphonies - CD3.wav
Peak level 97.2 % Extraction speed 2.4 X Range quality 100.0 % Test CRC 87B6A58E Copy CRC 87B6A58E Copy OK
No errors occurred
AccurateRip summary
Track 1 accurately ripped (confidence 1) [50BCC057] (AR v2)Track 2 accurately ripped (confidence 1) [86C31493] (AR v2)Track 3 accurately ripped (confidence 1) [948B937D] (AR v2)Track 4 accurately ripped (confidence 1) [39AE2B60] (AR v2)Track 5 accurately ripped (confidence 1) [E0003648] (AR v2)Track 6 accurately ripped (confidence 1) [A7914FAA] (AR v2)Track 7 accurately ripped (confidence 1) [553EC02F] (AR v2)Track 8 accurately ripped (confidence 1) [432D2DC1] (AR v2)
All tracks accurately ripped
End of status report
==== Log checksum D084F8DC257CC4950CED1AD8D8BE62D8CAF1E7DC8C34E9907C30377EDB3B6545 ====



Показать сообщения:    

Текущее время: 11-Дек 11:09

Часовой пояс: UTC + 3


Вы не можете начинать темы
Вы не можете отвечать на сообщения
Вы не можете редактировать свои сообщения
Вы не можете удалять свои сообщения
Вы не можете голосовать в опросах
Вы не можете прикреплять файлы к сообщениям
Вы не можете скачивать файлы