Затмение / L'eclisse (Микеланджело Антониони / Michelangelo Antonioni) [1962, Италия, Франция, драма, BDRip] DVO


 

[Цитировать]

Затмение / L'eclisse
Страна: Италия, Франция
Жанр: драма
Год выпуска: 1962
Продолжительность: 02:06:05
Перевод: Профессиональный (двухголосый закадровый)
Cубтитры: нет

Режиссер: Микеланджело Антониони / Michelangelo Antonioni
В ролях: Ален Делон, Моника Витти, Лилла Бриньоне, Франсиско Рабаль, Мирелла Риккарди, Россана Рори, Луи Сенье, Сайрус Элиас
Описание: Виттория только что рассталась с Риккардо, осознав, что они общаются лишь по привычке. Попав случайно на биржу, где любит играть мать, она знакомится с молодым преуспевающим биржевым консультантом Пьеро. Они оба молоды, красивы, легко идут на контакт, кажется, что она наконец-то нашла настоящую любовь. Виттория полна ожидания счастья, но очень скоро понимает, что для Пьеро она — просто очередная мимолетная связь, своеобразное возмещение морального долга ее матери, потерявшей в результате его действий все деньги. На очередное свидание никто из любовников не приходит...

Качество видео: BDRip - BDRip 720p - BDRemux 1080p
Формат видео: AVI
Видео: 720x384 (1.88:1), 23.976 fps, XviD build 73 ~1452 kbps avg, 0.22 bit/pixel
Аудио: 48 kHz, AC3 Dolby Digital, 2/0 (L,R) ch, ~192 kbps

MediaInfo

Общее
Полное имя : H:\L'eclisse.1962.bdrip_[1.46]_[teko].avi
Формат : AVI
Формат/Информация : Audio Video Interleave
Размер файла : 1,46 Гбайт
Продолжительность : 2 ч. 6 м.
Общий поток : 1654 Кбит/сек
Программа кодирования : VirtualDubMod 1.5.10.3 | www.virtualdub-fr.org || (build 2550/release)
Библиотека кодирования : VirtualDubMod build 2550/release
Видео
Идентификатор : 0
Формат : MPEG-4 Visual
Профиль формата : Advanced Simple@L5
Параметр BVOP формата : 1
Параметр QPel формата : Нет
Параметр GMC формата : Без точки перехода
Параметр матрицы формата : Выборочная
Идентификатор кодека : XVID
Идентификатор кодека/Подсказка : XviD
Продолжительность : 2 ч. 6 м.
Битрейт : 1453 Кбит/сек
Ширина : 720 пикселей
Высота : 384 пикселя
Соотношение сторон : 1,85:1
Частота кадров : 23,976 кадра/сек
Цветовое пространство : YUV
Субдискретизация насыщенности : 4:2:0
Битовая глубина : 8 бит
Тип развёртки : Прогрессивная
Метод сжатия : С потерями
Бит/(Пиксели*Кадры) : 0.219
Размер потока : 1,28 Гбайт (88%)
Библиотека кодирования : XviD 73
Аудио
Идентификатор : 1
Формат : AC-3
Формат/Информация : Audio Coding 3
Расширение режима : CM (complete main)
Параметр Endianness формата : Big
Идентификатор кодека : 2000
Продолжительность : 2 ч. 6 м.
Вид битрейта : Постоянный
Битрейт : 192 Кбит/сек
Каналы : 2 канала
Расположение каналов : Front: L R
Частота : 48,0 КГц
Битовая глубина : 16 бит
Метод сжатия : С потерями
Размер потока : 173 Мбайт (12%)
Выравнивание : Разделение по промежуткам
Продолжительность промежутка : 42 мс. (1,00 видеокадр)
Время предзагрузки промежутка : 500 мс.



Показать сообщения:    

Текущее время: 04-Дек 15:14

Часовой пояс: UTC + 3


Вы не можете начинать темы
Вы не можете отвечать на сообщения
Вы не можете редактировать свои сообщения
Вы не можете удалять свои сообщения
Вы не можете голосовать в опросах
Вы не можете прикреплять файлы к сообщениям
Вы не можете скачивать файлы