Букет / Kytice / Wild Flowers (Франтишек Антонин Брабец / F. A. Brabec) [2000, Чехия, Сказка, Драма, Мелодрама, DVDRip-AVC] MVO (Творческое объединение «Трио толстяков»)


Статистика раздачи [Обновить пиров]
Размер:  1.49 GB   |    Зарегистрирован:  1 год 1 месяц   |    Скачан:  1 раз
Сидов:  14  [  0 KB/s  ]   Личеров:  2  [  0 KB/s  ]   Подробная статистика пиров
 
   
 
 

[Цитировать]

Букет ● Kytice-- Страна: Чехия
Жанр: Сказка, Драма, Мелодрама
Год выпуска: 2000
Продолжительность: 01:20:22
Перевод: Любительский (многоголосый закадровый) Творческое объединение «Трио толстяков»
Cубтитры: русские (только на не озвученный фрагмент)
Режиссер: Франтишек Антонин Брабец / F. A. Brabec--В ролях: Линда Рыбова, Дан Барта, Карел Роден, Клара Седлачкова, Анна Гейслерова, Карел Добры, Стелла Зазворкова, Сандра Новакова, Болек Поливка, Алена Михулова, Сюзана Быджовска--Описание: «Букет» - очень красивый мистический фильм, состоящий из 7 новелл по мотивам баллад классика чешской литературы Карела Яромира Эрбена, основанных на чешском фольклоре. Из этих дивных, таких разных рассказов как бы создан один букет, в котором каждый цветок дополняет другой.
Здесь и сказка про водяного, его мать и молодую жену, и баллада о черноглазом князе, который нашёл осенней порой в лесу свою единственную любовь, которая погубила его. Есть и легенда про старуху-смерть Полуденницу, приходящую к тем, кто только случайно называет её имя, и сказ о девушке, которая готова была отдать душу, лишь бы её возлюбленный вернулся с войны...--Доп. информация: Исходником послужил DVD из личной коллекции.
Озвучено творческим объединением «Трио толстяков» в 2015 году по переводу Михаила Голодного.
-
-Сэмпл
Качество видео: DVDRip-AVC
Формат видео: MKV
Видео: x264, 720х384 (1,85:1), 2211 Кбит/сек, 25,000 кадров/сек
Аудио: AC-3, 448 Кбит/сек, 6 каналов (Front: L C R, Side: L R, LFE), 48,0 КГц
Формат субтитров: softsub (SRT)

MediaInfo

Общее
Уникальный идентификатор : 181131060775578527702187970134558800525 (0x884492C912B2BB07B6ED410E945A7A8D)
Полное имя : Букет (Kytice).mkv
Формат : Matroska
Версия формата : Version 4 / Version 2
Размер файла : 1,49 Гбайт
Продолжительность : 1 ч. 20 м.
Общий поток : 2660 Кбит/сек
Название фильма : Букет | Kytice
Дата кодирования : UTC 2015-11-06 17:24:23
Программа кодирования : mkvmerge v8.5.2 ('Crosses') 64bit
Библиотека кодирования : libebml v1.3.3 + libmatroska v1.4.4
DURATION : 00:00:14.750000000
NUMBER_OF_FRAMES : 4
NUMBER_OF_BYTES : 231
_STATISTICS_WRITING_APP : mkvmerge v8.5.2 ('Crosses') 64bit
_STATISTICS_WRITING_DATE_UTC : 2015-11-06 17:24:23
_STATISTICS_TAGS : BPS DURATION NUMBER_OF_FRAMES NUMBER_OF_BYTES
Видео
Идентификатор : 1
Формат : AVC
Формат/Информация : Advanced Video Codec
Профиль формата : High@L4.1
Параметр CABAC формата : Да
Параметр ReFrames формата : 14 кадров
Идентификатор кодека : V_MPEG4/ISO/AVC
Продолжительность : 1 ч. 20 м.
Битрейт : 2211 Кбит/сек
Ширина : 720 пикселей
Высота : 384 пикселя
Соотношение сторон : 1,85:1
Режим частоты кадров : Постоянный
Частота кадров : 25,000 кадров/сек
Цветовое пространство : YUV
Субдискретизация насыщенности : 4:2:0
Битовая глубина : 8 бит
Тип развёртки : Прогрессивная
Бит/(Пиксели*Кадры) : 0.320
Размер потока : 1,21 Гбайт (81%)
Заголовок : Kytice | DVDRip by Gersuzu
Библиотека кодирования : x264 core 146 r2538 121396c
Настройки программы : cabac=1 / ref=14 / deblock=1:-2:-2 / analyse=0x3:0x133 / me=umh / subme=9 / psy=1 / psy_rd=1.00:0.20 / mixed_ref=1 / me_range=32 / chroma_me=1 / trellis=2 / 8x8dct=1 / cqm=0 / deadzone=21,11 / fast_pskip=0 / chroma_qp_offset=-3 / threads=6 / lookahead_threads=1 / sliced_threads=0 / nr=0 / decimate=1 / interlaced=0 / bluray_compat=0 / constrained_intra=0 / bframes=10 / b_pyramid=2 / b_adapt=2 / b_bias=0 / direct=3 / weightb=1 / open_gop=1 / weightp=2 / keyint=250 / keyint_min=25 / scenecut=40 / intra_refresh=0 / rc_lookahead=60 / rc=2pass / mbtree=1 / bitrate=2211 / ratetol=1.0 / qcomp=0.60 / qpmin=0 / qpmax=69 / qpstep=4 / cplxblur=20.0 / qblur=0.5 / vbv_maxrate=50000 / vbv_bufsize=50000 / nal_hrd=none / filler=0 / ip_ratio=1.40 / aq=1:1.00
Язык : Chechen
Default : Да
Forced : Нет
Аудио
Идентификатор : 2
Формат : AC-3
Формат/Информация : Audio Coding 3
Расширение режима : CM (complete main)
Параметр Endianness формата : Big
Идентификатор кодека : A_AC3
Продолжительность : 1 ч. 20 м.
Вид битрейта : Постоянный
Битрейт : 448 Кбит/сек
Каналы : 6 каналов
Расположение каналов : Front: L C R, Side: L R, LFE
Частота : 48,0 КГц
Метод сжатия : С потерями
Размер потока : 258 Мбайт (17%)
Заголовок : MVO ["Трио толстяков"]
Язык : Russian
Default : Да
Forced : Нет
Текст
Идентификатор : 3
Формат : UTF-8
Идентификатор кодека : S_TEXT/UTF8
Идентификатор кодека/Информация : UTF-8 Plain Text
Заголовок : forced
Язык : Russian
Default : Да
Forced : Нет
[teatrix.ru].t10585.torrent 
Торрент: Зарегистрирован [ 2015-11-08 00:25 ] · A826E4C87E580ABFF1E6746E05AA703501092F45

Скачать .torrent

Скачать

15 KB

Статус: проверено
Скачан: 1 раз
Размер: 1.49 GB
terms.php



Быстрый ответ

Имя:

      
Для отправки сообщений необходимо включить JavaScript
Показать сообщения:    

Текущее время: 08-Дек 19:05

Часовой пояс: UTC + 3


Вы можете начинать темы
Вы можете отвечать на сообщения
Вы не можете редактировать свои сообщения
Вы не можете удалять свои сообщения
Вы не можете голосовать в опросах
Вы не можете прикреплять файлы к сообщениям
Вы можете скачивать файлы