Слава блудницы / Whores' Glory (Михаэль Главоггер / Michael Glawogger) [2011, Германия, Австрия, документальный, DVB] DVO (SDI Media)


Статистика раздачи [Обновить пиров]
Размер:  1.68 GB   |    Зарегистрирован:  1 год   |    Скачан:  0 раз

Полного источника не было: Никогда

Личеров:  2  [  0 KB/s  ]   Подробная статистика пиров
 
   
 
 
 

[Цитировать]

Слава блудницы
Whores' Glory- Страна: Германия, Австрия
Жанр: документальный
Год выпуска: 2011
Продолжительность: 01:41:47Перевод: Профессиональный (двухголосый закадровый) Студия SDI Media по заказу телеканала "24 ДОК"
Cубтитры: русские
Режиссер: Михаэль Главоггер / Michael Glawogger
В ролях: Эмма, Нинг, Мина
Описание: Эта документальная лента уносит зрителя в три точки земного шара: Таиланд, Бангладеш и Мексику. Режиссер открывает занавесу тайн ежедневной жизни современных проституток. Мы видим, как они работают, как находят клиентов. Почти все из них живут за чертой бедности. Девушки вынуждены этим заниматься, ведь другой доли у них нет. Фильм показывает грустную сторону жизни этих женщин. Мы видим самое дно и истории без хэппи-энда". (Saffron Burrows)
Доп. информация: DVB-S. Перевод неанглийских диалогов в виде вшитых русских субтитров. Перевод цитат заменой видеоряда.
Награды: Специальный приз жюри программы "Горизонты" Venice Film Festival 2011; номинация на премию Джона Грирсона за инновации в документальном кино London Film Festival 2011; 2 награды Austrian Film Award 2012 (лучший документальный фильм, оператор) + 2 номинации (лучший режиссер, монтаж); номинация на премию "Золотая лягушка" за лучшую операторскую работу в секции "Документальных фильмов" Camerimage 2012; приз зрительских симпатий за лучший полнометражный фильм IndieLisboa International Independent Film Festival 2012.

Качество видео: DVB
Формат видео: MKV
Видео: MPEG Video 2, 720x576@768x576 (4:3), 25 fps, ~2129 kbps avg, 0.205 bit/pixel
Аудио: MPEG Audio 2, 2 ch, 48 kHz, 192.00 kbps
Формат субтитров: hardsub (неотключаемые)
Доп. информация о субтитрах: форсированные

MediaInfo

ОбщееУникальный идентификатор : 220687891214440353250358024472208760399 (0xA606F11A27E4B4BBBE1679DF292E5E4F)Полное имя : F:\My Torrents 3\[apreder]Whores_Glory(2011)DVB.mkvФормат : MatroskaВерсия формата : Version 2Размер файла : 1,68 ГбайтПродолжительность : 1 ч. 41 м.Режим общего битрейта : ПеременныйОбщий поток : 2368 Кбит/секДата кодирования : UTC 2015-11-07 18:02:13Программа кодирования : mkvmerge v8.5.2 ('Crosses') 64bitБиблиотека кодирования : libebml v1.3.3 + libmatroska v1.4.4Attachements : cover.jpg / cover_small.jpgTITLE : Whores' GloryIMDB : tt1327628DATE_RELEASED : 2011-09-09LAW_RATING : 18+GENRE : DocumentaryDIRECTOR : Michael GlawoggerKEYWORDS
ВидеоИдентификатор : 1Формат : MPEG VideoВерсия формата : Version 2Профиль формата : Main@MainПараметр BVOP формата : ДаПараметр матрицы формата : ВыборочнаяПараметр GOP формата : M=3, N=36Format_Settings_PictureStructure : FrameИдентификатор кодека : V_MPEG2Идентификатор кодека/Информация : MPEG 1 or 2 VideoПродолжительность : 1 ч. 41 м.Вид битрейта : ПеременныйБитрейт : 2129 Кбит/секШирина : 720 пикселейВысота : 576 пикселейСоотношение сторон : 4:3Режим частоты кадров : ПостоянныйЧастота кадров : 25,000 кадров/секСтандарт вещания : PALЦветовое пространство : YUVСубдискретизация насыщенности : 4:2:0Битовая глубина : 8 битТип развёртки : ЧересстрочнаяПорядок развёртки : Верхнее поле первоеМетод сжатия : С потерямиБит/(Пиксели*Кадры) : 0.205Временной код первого кадра : 00:00:00:00Оригинал временного кода : Group of pictures headerРазмер потока : 1,51 Гбайт (90%)Default : ДаForced : Нет
АудиоИдентификатор : 2Формат : MPEG AudioВерсия формата : Version 1Профиль формата : Layer 2Идентификатор кодека : A_MPEG/L2Идентификатор кодека/Подсказка : MP2Продолжительность : 1 ч. 41 м.Вид битрейта : ПостоянныйБитрейт : 192 Кбит/секКаналы : 2 каналаЧастота : 48,0 КГцМетод сжатия : С потерямиРазмер потока : 140 Мбайт (8%)Язык : RussianDefault : ДаForced : Нет

Скриншот c названием фильма

Скриншоты


Резервные скриншоты


[teatrix.ru].t10586.torrent 
Торрент: Зарегистрирован [ 2015-11-08 00:25 ] · 65DEEF246C5F678095FA939429C188B4E1D41BAA

Скачать .torrent

Скачать

17 KB

Статус: проверено
Скачан: 0 раз
Размер: 1.68 GB
terms.php



Быстрый ответ

Имя:

      
Для отправки сообщений необходимо включить JavaScript
Показать сообщения:    

Текущее время: 04-Дек 11:15

Часовой пояс: UTC + 3


Вы можете начинать темы
Вы можете отвечать на сообщения
Вы не можете редактировать свои сообщения
Вы не можете удалять свои сообщения
Вы не можете голосовать в опросах
Вы не можете прикреплять файлы к сообщениям
Вы можете скачивать файлы