(Orchestral) Николай Мясковский - Симфония №6 (Goteborgs Symfoniker - Neeme Jarvi) - 2002, FLAC (image+.cue) lossless


 

[Цитировать]

MIASKOVSKY - SYMPHONY NO.6
Göteborgs Symfoniker - NEEME JÄRVI
-
-
-
-
- Жанр: Orchestral
Страна-производитель диска: USA
Год издания диска: 2002
Издатель (лейбл): DGG
Дата записи: 8.1998
Аудиокодек: FLAC
Тип рипа: image+.cue
Битрейт аудио: lossless
Продолжительность: 64'30''
Источник: собственный рип
Наличие сканов в содержимом раздачи: да
Треклист:
Николай Мясковский - Симфония №6:
[01] I. Poco largamente - Allegro feroce
[02] II. Presto tenebroso - Andante moderato - Tempo I
[03] III. Andante appassionato
[04] IV. Allegro vivace (quasi presto) - Piu sostenuto - Andante molto espressivo
Исполнители:
Göteborgs Symfoniker - Neeme Järvi

Лог создания рипа

Exact Audio Copy V1.0 beta 4 from 7. December 2014
EAC extraction logfile from 8. August 2015, 1:56
Gothenburg Symphony Orchestra - Neeme Järvi / Myaskovsky - Symphony No.6
Used drive : PHILIPS PCRW804 Adapter: 1 ID: 1
Read mode : SecureUtilize accurate stream : YesDefeat audio cache : YesMake use of C2 pointers : No
Read offset correction : -436Overread into Lead-In and Lead-Out : NoFill up missing offset samples with silence : YesDelete leading and trailing silent blocks : NoNull samples used in CRC calculations : YesUsed interface : Native Win32 interface for Win NT & 2000
Used output format : User Defined EncoderSelected bitrate : 1024 kBit/sQuality : HighAdd ID3 tag : NoCommand line compressor : C:\Program Files (x86)\FLAC\flac.exeAdditional command line options : -T "COMMENT=rip by el coronel" -8 -V %source%
TOC of the extracted CD
Track | Start | Length | Start sector | End sector --------------------------------------------------------- 1 | 0:00.00 | 22:25.57 | 0 | 100931 2 | 22:25.57 | 8:55.50 | 100932 | 141106 3 | 31:21.32 | 15:06.10 | 141107 | 209066 4 | 46:27.42 | 18:02.08 | 209067 | 290224
Range status and errors
Selected range
Filename F:\Music\Myaskovsky 6 Jarvi\CD.wav
Peak level 100.0 % Extraction speed 2.0 X Range quality 100.0 % Test CRC B1E57897 Copy CRC B1E57897 Copy OK
No errors occurred
AccurateRip summary
Track 1 accurately ripped (confidence 8) [4E783978] (AR v2)Track 2 accurately ripped (confidence 8) [90DD4124] (AR v2)Track 3 accurately ripped (confidence 8) [3F4C1CD5] (AR v2)Track 4 accurately ripped (confidence 9) [C1211E58] (AR v2)
All tracks accurately ripped
End of status report
---- CUETools DB Plugin V2.1.4
[CTDB TOCID: HAxtgfOLpuIILdt3Z2KREakDA9Q-] foundSubmit result: HAxtgfOLpuIILdt3Z2KREakDA9Q- has been confirmedTrack | CTDB Status 1 | (10/13) Accurately ripped, or (1/13) differs in 70 samples @22:23:29,22:25:47 2 | (10/13) Accurately ripped, or (1/13) differs in 84 samples @08:53:48,08:55:49 3 | (10/13) Accurately ripped, or (1/13) differs in 59 samples @15:03:71,15:06:09 4 | (11/13) Accurately ripped
==== Log checksum A06EAEC0B23E2D2366965997D125447BFAF7DF7D7C33EBD06E88CB189091B75C ====

Содержание индексной карты (.CUE)

REM GENRE ClassicalREM DATE 2002REM DISCID 3F0F1D04REM COMMENT "ExactAudioCopy v1.0b4"PERFORMER "Gothenburg Symphony Orchestra - Neeme Jarvi"TITLE "Myaskovsky - Symphony No.6"FILE "CD.flac" WAVE TRACK 01 AUDIO TITLE "I. Poco largamente - Allegro feroce" PERFORMER "Gothenburg Symphony Orchestra - Neeme Jarvi" ISRC DEF059804521 INDEX 01 00:00:00 TRACK 02 AUDIO TITLE "II. Presto tenebroso - Andante moderato - Tempo I" PERFORMER "Gothenburg Symphony Orchestra - Neeme Jarvi" ISRC DEF059804521 INDEX 01 22:25:57 TRACK 03 AUDIO TITLE "III. Andante appassionato" PERFORMER "Gothenburg Symphony Orchestra - Neeme Jarvi" ISRC DEF059804522 INDEX 01 31:21:32 TRACK 04 AUDIO TITLE "IV. Allegro vivace (quasi presto) - Piu sostenuto - Andante molto espressivo" PERFORMER "Gothenburg Symphony Orchestra - Neeme Jarvi" ISRC DEF059804524 INDEX 01 46:27:42



Показать сообщения:    

Текущее время: 03-Дек 20:44

Часовой пояс: UTC + 3


Вы не можете начинать темы
Вы не можете отвечать на сообщения
Вы не можете редактировать свои сообщения
Вы не можете удалять свои сообщения
Вы не можете голосовать в опросах
Вы не можете прикреплять файлы к сообщениям
Вы не можете скачивать файлы