Мюзикл Элизабет 2013 (Корея) / Musical Elisabeth 2013 (Michael Kunze) [2013, Южная Корея, Мюзикл, DVDRip, AVC]


 

[Цитировать]

Мюзикл Элизабет 2013 (Корея) / Musical Elisabeth 2013
Страна: Южная Корея
Жанр: Мюзикл
Год выпуска: 2013
Продолжительность: 2:32:50
Перевод: Отсутствует
Cубтитры: нет
Режиссёр: Michael Kunze
В ролях: Oak Joo Hyun, Park Eun Tae, Min Young Ki, Lee Jung Hwa, Kim Seung Dae, and JYJ's Kim Jun Su
Описание: Сюжет изображает жизнь и смерть императрицы Австрии, Елизаветы Баварской, жены императора Франца Иосифа. Мюзикл был переведен на семь языков и стал самой успешной немецкоязычной постановкой, его посмотрели более девяти миллионов зрителей во всем мире.
Качество видео: DVDRip
Формат видео: MP4
Видео: AVC, 640 на 360, 29,970 fps, 495 kbps
Аудио: Korean, 40, -12ms, 128 kbps, 2 channels

MediaInfo

General
Complete name : E:\Клипы\DBSK\Мюзикл Элизабет 2013.mp4
Format : MPEG-4
Format profile : Base Media
Codec ID : isom
File size : 693 MiB
Duration : 2h 32mn
Overall bit rate : 634 Kbps
Writing application : Lavf55.48.100
Video
ID : 1
Format : AVC
Format/Info : Advanced Video Codec
Format profile : Baseline@L3
Format settings, CABAC : No
Format settings, ReFrames : 3 frames
Codec ID : avc1
Codec ID/Info : Advanced Video Coding
Duration : 2h 32mn
Bit rate : 495 Kbps
Width : 640 pixels
Height : 360 pixels
Display aspect ratio : 16:9
Frame rate mode : Constant
Frame rate : 29.970 fps
Color space : YUV
Chroma subsampling : 4:2:0
Bit depth : 8 bits
Scan type : Progressive
Bits/(Pixel*Frame) : 0.072
Stream size : 546 MiB (79%)
Writing library : x264 core 142
Encoding settings : cabac=0 / ref=3 / deblock=1:0:0 / analyse=0x1:0x111 / me=hex / subme=7 / psy=1 / psy_rd=1.00:0.00 / mixed_ref=1 / me_range=16 / chroma_me=1 / trellis=1 / 8x8dct=0 / cqm=0 / deadzone=21,11 / fast_pskip=1 / chroma_qp_offset=-2 / threads=4 / lookahead_threads=1 / sliced_threads=0 / nr=0 / decimate=1 / interlaced=0 / bluray_compat=0 / constrained_intra=0 / bframes=0 / weightp=0 / keyint=250 / keyint_min=25 / scenecut=40 / intra_refresh=0 / rc_lookahead=40 / rc=abr / mbtree=1 / bitrate=495 / ratetol=1.0 / qcomp=0.60 / qpmin=0 / qpmax=69 / qpstep=4 / ip_ratio=1.40 / aq=1:1.00
Audio
ID : 2
Format : AAC
Format/Info : Advanced Audio Codec
Format profile : LC
Codec ID : 40
Duration : 2h 32mn
Duration_LastFrame : -12ms
Bit rate mode : Constant
Bit rate : 128 Kbps
Channel(s) : 2 channels
Channel positions : Front: L R
Sampling rate : 44.1 KHz
Compression mode : Lossy
Stream size : 140 MiB (20%)

Скриншот с названием постановки

Скриншоты




Топик был перенесен из форума Театр (DVD, HD и Video) в форум Мюзиклы (Video)
admin


Показать сообщения:    

Текущее время: 08-Дек 19:03

Часовой пояс: UTC + 3


Вы не можете начинать темы
Вы не можете отвечать на сообщения
Вы не можете редактировать свои сообщения
Вы не можете удалять свои сообщения
Вы не можете голосовать в опросах
Вы не можете прикреплять файлы к сообщениям
Вы не можете скачивать файлы