(Classical) Jean Sibelius - Kuolema; King Christian II - Pia Pajala, Waltteri Torikka, Turku Philharmonic Orchestra, Leif Segerstam - 2015, FLAC (image+.cue) lossless


 

[Цитировать]

Jean Sibelius - Kuolema; King Christian II - Pia Pajala, Waltteri Torikka, Turku Philharmonic Orchestra, Leif Segerstam
Жанр: Classical
Год издания диска: 2015
Издатель (лейбл): Naxos
Номер по каталогу: 8.573299
Дата записи: 2014
Аудиокодек: FLAC
Тип рипа: image+.cue
Битрейт аудио: lossless
Продолжительность: 71:16
Источник: собственный рип
Наличие сканов в содержимом раздачи: да
Треклист:
Jean Sibelius (1865-1957)
[1] Overture in A minor, JS144 (1902)
[2]-[7] Kuolema – Complete Incidental Music, JS113 (1903)
[8]-[9] Two Songs from Twelfth Night, Op. 60
[10]-[16] Kung Kristian II (King Christian II) – Complete Incidental Music, Op. 27 (1898)
Исполнители:
Pia Pajala soprano
Waltteri Torikka baritone
Turku Philharmonic Orchestra
Leif Segerstam

Лог создания рипа

Exact Audio Copy V1.1 from 23. June 2015
EAC extraction logfile from 1. November 2015, 21:30
Turku Philharmonic Orchestra, Leif Segerstam / Sibelius - Kuolema; King Christian II
Used drive : HL-DT-STDVDRAM GU70N Adapter: 1 ID: 0
Read mode : SecureUtilize accurate stream : YesDefeat audio cache : YesMake use of C2 pointers : No
Read offset correction : 48Overread into Lead-In and Lead-Out : NoFill up missing offset samples with silence : YesDelete leading and trailing silent blocks : NoNull samples used in CRC calculations : YesUsed interface : Native Win32 interface for Win NT & 2000
Used output format : User Defined EncoderSelected bitrate : 128 kBit/sQuality : HighAdd ID3 tag : NoCommand line compressor : C:\Program Files (x86)\Exact Audio Copy\Flac\flac.exeAdditional command line options : -V -8 -T "Date=%year%" -T "Genre=%genre%" %source%
TOC of the extracted CD
Track | Start | Length | Start sector | End sector --------------------------------------------------------- 1 | 0:00.00 | 6:59.11 | 0 | 31435 2 | 6:59.11 | 6:06.37 | 31436 | 58922 3 | 13:05.48 | 3:35.10 | 58923 | 75057 4 | 16:40.58 | 8:57.67 | 75058 | 115399 5 | 25:38.50 | 1:13.43 | 115400 | 120917 6 | 26:52.18 | 2:32.08 | 120918 | 132325 7 | 29:24.26 | 1:52.23 | 132326 | 140748 8 | 31:16.49 | 3:01.21 | 140749 | 154344 9 | 34:17.70 | 1:41.23 | 154345 | 161942 10 | 35:59.18 | 6:38.67 | 161943 | 191859 11 | 42:38.10 | 2:10.56 | 191860 | 201665 12 | 44:48.66 | 2:00.45 | 201666 | 210710 13 | 46:49.36 | 4:28.58 | 210711 | 230868 14 | 51:18.19 | 8:29.31 | 230869 | 269074 15 | 59:47.50 | 5:08.48 | 269075 | 292222 16 | 64:56.23 | 6:17.52 | 292223 | 320549
Range status and errors
Selected range
Filename C:\temp\Naxos_8.573299 - Sibelius - Kuolema; King Christian II\Sibelius - Kuolema; King Christian II.wav
Peak level 99.4 % Extraction speed 2.3 X Range quality 100.0 % Test CRC A10F0174 Copy CRC A10F0174 Copy OK
No errors occurred
AccurateRip summary
Track 1 accurately ripped (confidence 1) [FAD22A04] (AR v2)Track 2 accurately ripped (confidence 1) [18F6275F] (AR v2)Track 3 accurately ripped (confidence 1) [2C185A0E] (AR v2)Track 4 accurately ripped (confidence 1) [107706B1] (AR v2)Track 5 accurately ripped (confidence 1) [322AC944] (AR v2)Track 6 accurately ripped (confidence 1) [416C98AD] (AR v2)Track 7 accurately ripped (confidence 1) [3FA88646] (AR v2)Track 8 accurately ripped (confidence 1) [97223284] (AR v2)Track 9 accurately ripped (confidence 1) [8D0D2E75] (AR v2)Track 10 accurately ripped (confidence 1) [9A201EC1] (AR v2)Track 11 accurately ripped (confidence 1) [E7B3FD6C] (AR v2)Track 12 accurately ripped (confidence 1) [C86B0FA8] (AR v2)Track 13 accurately ripped (confidence 1) [4AA5FB23] (AR v2)Track 14 accurately ripped (confidence 1) [935FBDF2] (AR v2)Track 15 accurately ripped (confidence 1) [82013D85] (AR v2)Track 16 accurately ripped (confidence 1) [009D4175] (AR v2)
All tracks accurately ripped
End of status report
==== Log checksum 08A7B9233504D83DF8C1EB9663E1870E5C1D299F225053A0A3E6F96BF1DE21BB ====



Показать сообщения:    

Текущее время: 09-Дек 06:52

Часовой пояс: UTC + 3


Вы не можете начинать темы
Вы не можете отвечать на сообщения
Вы не можете редактировать свои сообщения
Вы не можете удалять свои сообщения
Вы не можете голосовать в опросах
Вы не можете прикреплять файлы к сообщениям
Вы не можете скачивать файлы