Johannes Brahms - Concerto for Piano and Orchestra No. 1; Symphony No. 1 (Beethovenfest 2015) WDR Sinfonieorchester Koln, Jukka-Pekka Saraste, Gerhard Oppitz [2015, Classical / Orchestral, HDTV 720p]


 

[Цитировать]

Johannes Brahms
Konzert für Klavier und Orchester Nr. 1 d-moll op. 15
Symphonie Nr. 1 c-moll op. 68

Gerhard Oppitz • WDR Sinfonieorchester Köln • Jukka-Pekka Saraste

Год выпуска: 2015
Лейбл: WDR
Жанр: Classical / Orchestral
Продолжительность: 01:35:05
Режиссер: Hans Hadulla
Исполнители:
Gerhard Oppitz - klavier
Jukka-Pekka Saraste - dirigent
WDR Sinfonieorchester Köln
Треклист:
Johannes Brahms
- Konzert für Klavier und Orchester Nr. 1 d-moll op. 15
- Symphonie Nr. 1 c-moll op. 68
Доп. информация:
Beethovenfest 2015, Bonn
Jukka-Pekka Saraste dirigiert Brahms 3sat.de
Kölner Philharmonie Official Site
Jukka-Pekka Saraste Official Site
Jukka-Pekka Saraste from Wikipedia, the free encyclopedia
Gerhard Oppitz from Wikipedia, the free encyclopedia
Качество видео: HDTV 720p
Контейнер: TS
Видео кодек: H.264
Аудио кодек: AC3
Видео поток: Overall bit rate: 14.0 Mbps, 1280*720 (16:9), at 50.000 fps, AVC (High@L4.0) (CABAC / 6 Ref Frames)
Аудио поток: German, 256 Kbps, 48.0 KHz, 2 channels, MPEG Audio (Version 1) (Layer 2)
Аудио 2: 192 Kbps, 48.0 KHz, 2 channels, MPEG Audio (Version 1) (Layer 2)
Аудио 3: German, 448 Kbps, 48.0 KHz, 16 bits, 2 channels, AC-3
Аудио 4: Multiple languages, 192 Kbps, 48.0 KHz, 2 channels, MPEG Audio (Version 1) (Layer 2)
Источник: Digital Satellite > SkyStar HD2 (TechniSat) > raw data to HDD > Cypheros TS-Doctor > Smart Cutter (cut) > ts

MediaInfo

GeneralID : 8900 (0x22C4)Complete name : C:\3sat HD_Johannes Brahms (Jukka-Pekka Saraste) 2015.tsFormat : MPEG-TSFile size : 9.28 GiBDuration : 1h 35mnOverall bit rate mode : VariableOverall bit rate : 14.0 Mbps
VideoID : 6510 (0x196E)Menu ID : 11150 (0x2B8E)Format : AVCFormat/Info : Advanced Video CodecFormat profile : High@L4.0Format settings, CABAC : YesFormat settings, ReFrames : 6 framesCodec ID : 27Duration : 1h 35mnBit rate : 12.2 MbpsWidth : 1 280 pixelsHeight : 720 pixelsDisplay aspect ratio : 16:9Frame rate : 50.000 fpsColor space : YUVChroma subsampling : 4:2:0Bit depth : 8 bitsScan type : ProgressiveBits/(Pixel*Frame) : 0.264Stream size : 8.09 GiB (87%)Color primaries : BT.709Transfer characteristics : BT.709Matrix coefficients : BT.709
Audio #1ID : 6520 (0x1978)Menu ID : 11150 (0x2B8E)Format : MPEG AudioFormat version : Version 1Format profile : Layer 2Codec ID : 3Duration : 1h 35mnBit rate mode : ConstantBit rate : 256 KbpsChannel(s) : 2 channelsSampling rate : 48.0 KHzCompression mode : LossyDelay relative to video : -2msStream size : 174 MiB (2%)Language : German
Audio #2ID : 6521 (0x1979)Menu ID : 11150 (0x2B8E)Format : MPEG AudioFormat version : Version 1Format profile : Layer 2Codec ID : 3Duration : 1h 35mnBit rate mode : ConstantBit rate : 192 KbpsChannel(s) : 2 channelsSampling rate : 48.0 KHzCompression mode : LossyDelay relative to video : -2msStream size : 131 MiB (1%)
Audio #3ID : 6522 (0x197A)Menu ID : 11150 (0x2B8E)Format : AC-3Format/Info : Audio Coding 3Mode extension : CM (complete main)Format settings, Endianness : BigCodec ID : 6Duration : 1h 35mnBit rate mode : ConstantBit rate : 448 KbpsChannel(s) : 2 channelsChannel positions : Front: L RSampling rate : 48.0 KHzBit depth : 16 bitsCompression mode : LossyDelay relative to video : -12msStream size : 305 MiB (3%)Language : German
Audio #4ID : 6523 (0x197B)Menu ID : 11150 (0x2B8E)Format : MPEG AudioFormat version : Version 1Format profile : Layer 2Codec ID : 3Duration : 1h 35mnBit rate mode : ConstantBit rate : 192 KbpsChannel(s) : 2 channelsSampling rate : 48.0 KHzCompression mode : LossyDelay relative to video : -18msStream size : 131 MiB (1%)Language : Multiple languages
... info ...">

Скриншоты ... info ...


Beethovenfest Bonn 2015
Jukka-Pekka Saraste dirigiert Brahms
Der versierte Brahms-Interpret Gerhard Oppitz ist für sein Engagement für den Komponisten 2009 mit dem Brahms-Preis ausgezeichnet worden. Unter der Leitung des finnischen Stardirigenten Jukka-Pekka Saraste spielt er gemeinsam mit dem WDR Sinfonieorchester beim Beethovenfest Bonn 2015.
Seine erste Sinfonie stellt Brahms mit 43 Jahren fertig. Er hat 14 Jahre an ihr gearbeitet - im ständigen Zweifel, ob er dem Vergleich mit dem Vorbild Beethoven standhalten könne.
Dieser "Sinfonie-Komplex" steht auch hinter den beiden anderen Werken des Programms, das Jukka-Pekka Saraste, das WDR Sinfonieorchester und der Pianist Gerhard Oppitz beim Beethovenfest Bonn 2015 zum Besten geben: die Haydn-Variationen und das Klavierkonzert Nr. 1.
Die Haydn-Variationen bezeichnet Brahms als "orchestrale Vorübung" zur ersten Sinfonie. Und das erste Klavierkonzert entsteht sogar aus dem Material einer früh aufgegebenen "verunglückten Sinfonie". Nach der Umarbeitung zum Konzert ist es eher eine Sinfonie mit obligatem Klavier.
~ 3sat.de



Показать сообщения:    

Текущее время: 11-Дек 12:56

Часовой пояс: UTC + 3


Вы не можете начинать темы
Вы не можете отвечать на сообщения
Вы не можете редактировать свои сообщения
Вы не можете удалять свои сообщения
Вы не можете голосовать в опросах
Вы не можете прикреплять файлы к сообщениям
Вы не можете скачивать файлы