Иоганн Себастьян Бах: Бранденбургские концерты №1-6 / Johann Sebastian Bach: Brandenburgische Konzerte №1-6 (Claudio Abbado) [2008, Classical, Blu-ray]


 

[Цитировать]

Иоганн Себастьян Бах: Бранденбургские концерты №1-6 / Johann Sebastian Bach: Brandenburgische Konzerte №1-6
Год выпуска: 2008
Жанр: Classical
Продолжительность: 01:39:32
Субтитры: English, Spanish, French, German
Дирижер: Claudio Abbado
Оркестр: Orchestra Mozart Giuliano Carmignola
Венью: Teatro Municipale Romolo Valli, Reggio Emilia 2007
Отдельная благодарность xige и Cisco за предоставленный материал.
BDRip (3.64 GB)

Треклист

Concerto No. 1 in F major
1. Allegro
2. Adagio
3. Allegro
4. Menuetto (Trio I, Polacco, Trio II)
Concerto No. 3 in G major
1. Allegro
2. Adagio
3. Allegro
Concerto No. 5 in D major
1. Allegro
2. Affettuoso
3. Allegro
Concerto No.6 in B flat major
1. Allegro
2. Adagio ma non tanto
3. Allegro
Concerto No. 4 in G major
1. Allegro
2. Andante
3. Presto
Concerto No. 2 in F major
1. Allegro
2. Andante
3. Allegro assai
Encore
1. Concerto No. 2 Allegro assai

Описание

Arguably the greatest composer from the Baroque era Johann Sebastian Bach (1685-1750) composed over 1100 works. His works, particularly in regard to counterpoint, are widely regarded as being amongst the greatest compositions ever written. They are characterized by complex motivic patterns, flexible rhythmic structures, and an innovative use of traditional forms (Fugue, Cantata, etc).
The Brandenburg Concerti, originally titled "Six Concerts а plusieurs instruments", consist of six instrumental works for winds, strings, horns, and harpsichord. They were first presented to Christian Ludwig, a margrave at Brandenburg-Schwedt, in 1721.

Качество видео: Blu-ray
Формат/Контейнер: M2TS
Видео поток: MPEG-4 AVC Video 21939 kbps 1080i / 29,970 fps / 16:9 / High Profile 4.1
Аудио поток №1: LPCM Audio German 5.1 / 48 kHz / 4608 kbps / 16-bit
Аудио поток №2: LPCM Audio German 2.0 / 48 kHz / 1536 kbps / 16-bit

Скриншоты

Коврики

BDinfo

Disc Title: Bach - Brandenburg Concertos 1-6 1080i Blu-ray AVC LPCM5.1
Disc Size: 22 762 628 340 bytes
Protection: AACS
BD-Java: No
Notes:
BDINFO HOME AND REPORTS SUBMISSION:
Cinema Squid
http://www.cinemasquid.com/Tools.aspx
INCLUDES FORUMS REPORT FOR:
Unofficial Blu-ray Audio and Video Specifications Thread
http://www.avsforum.com/avs-vb/showthread.php?t=760714
http://forum.blu-ray.com/showthread.php?t=3338
********************
PLAYLIST: 00000.MPLS
********************
<--- BEGIN SUMMARY PASTE --->
Код:
Total   Video
Title                                                           Codec   Length  Movie Size      Disc Size       Bitrate Bitrate Main Audio Track                          Secondary Audio Track
-----                                                           ------  ------- --------------  --------------  ------- ------- ------------------                        ---------------------
00000.MPLS                                                      AVC     1:39:32 22 199 894 016  22 762 628 340  29,74   21,94   LPCM 5.1 4608Kbps (48kHz/16-bit)          LPCM 2.0 1536Kbps (48kHz/16-bit)
<---- END SUMMARY PASTE ---->
<--- BEGIN DETAILS PASTE --->
Код:
DISC INFO:
Disc Title:     Bach - Brandenburg Concertos 1-6 1080i Blu-ray AVC LPCM5.1
Disc Size:      22 762 628 340 bytes
Protection:     AACS
BD-Java:        No
PLAYLIST REPORT:
Name:                   00000.MPLS
Size:                   22 199 894 016 bytes
Length:                 1:39:32 (h:m:s)
Total Bitrate:          29,74 Mbps
Description:
VIDEO:
Codec                   Bitrate             Description
-----                   -------             -----------
MPEG-4 AVC Video        21939 kbps          1080i / 29,970 fps / 16:9 / High Profile 4.1
AUDIO:
Codec                           Language        Bitrate         Description
-----                           --------        -------         -----------
LPCM Audio                      German          4608 kbps       5.1 / 48 kHz / 4608 kbps / 16-bit
LPCM Audio                      German          1536 kbps       2.0 / 48 kHz / 1536 kbps / 16-bit
FILES:
Name            Time In         Length          Size            Total Bitrate
----            -------         ------          ----            -------------
00000.M2TS      0:00:00.000     1:39:15.950     22 197 835 776  29 816
00015.M2TS      1:39:15.950     0:00:09.009     976 896         867
00016.M2TS      1:39:24.959     0:00:07.307     1 069 056       1 170
00002.M2TS      1:39:32.266     0:00:00.333     12 288          295
CHAPTERS:
Number          Time In         Length          Avg Video Rate  Max 1-Sec Rate  Max 1-Sec Time  Max 5-Sec Rate  Max 5-Sec Time  Max 10Sec Rate  Max 10Sec Time  Avg Frame Size  Max Frame Size  Max Frame Time
------          -------         ------          --------------  --------------  --------------  --------------  --------------  --------------  --------------  --------------  --------------  --------------
1               0:00:00.000     0:00:47.047     19 804 kbps     26 884 kbps     00:00:09.409    25 735 kbps     00:00:05.972    25 118 kbps     00:00:02.268    82 542 bytes    276 001 bytes   00:00:04.204
2               0:00:47.047     0:03:49.362     21 034 kbps     30 317 kbps     00:03:01.714    27 487 kbps     00:01:15.108    25 378 kbps     00:01:11.004    87 729 bytes    278 504 bytes   00:02:33.419
3               0:04:36.409     0:03:05.985     20 015 kbps     27 966 kbps     00:07:21.073    25 964 kbps     00:05:03.970    24 962 kbps     00:05:03.770    83 481 bytes    272 542 bytes   00:04:47.387
4               0:07:42.395     0:03:52.699     21 206 kbps     28 836 kbps     00:11:09.402    27 022 kbps     00:11:09.402    25 699 kbps     00:11:05.398    88 445 bytes    277 552 bytes   00:11:34.060
5               0:11:35.094     0:07:14.901     20 987 kbps     32 504 kbps     00:15:56.789    29 239 kbps     00:15:56.789    26 909 kbps     00:15:56.755    87 533 bytes    277 008 bytes   00:14:16.455
6               0:18:49.995     0:05:15.948     21 958 kbps     30 434 kbps     00:22:29.014    28 300 kbps     00:22:26.678    27 370 kbps     00:22:25.610    91 583 bytes    274 516 bytes   00:19:24.796
7               0:24:05.944     0:00:25.291     18 090 kbps     20 925 kbps     00:24:29.801    19 709 kbps     00:24:25.831    19 100 kbps     00:24:21.226    75 449 bytes    246 768 bytes   00:24:23.028
8               0:24:31.236     0:04:38.277     21 571 kbps     31 297 kbps     00:27:08.059    27 884 kbps     00:27:08.026    26 647 kbps     00:25:23.421    89 970 bytes    278 029 bytes   00:28:59.637
9               0:29:09.514     0:08:51.631     21 496 kbps     30 389 kbps     00:33:00.878    26 985 kbps     00:33:00.445    25 740 kbps     00:29:37.709    89 658 bytes    278 509 bytes   00:34:34.005
10              0:38:01.145     0:05:03.036     20 720 kbps     27 881 kbps     00:42:36.987    24 552 kbps     00:42:32.983    23 719 kbps     00:40:04.835    86 418 bytes    270 730 bytes   00:40:21.719
11              0:43:04.181     0:05:08.241     22 158 kbps     30 188 kbps     00:43:58.702    25 622 kbps     00:43:54.565    24 840 kbps     00:43:55.165    92 417 bytes    277 293 bytes   00:47:21.104
12              0:48:12.422     0:05:53.019     21 690 kbps     29 414 kbps     00:51:34.891    25 961 kbps     00:48:18.328    24 355 kbps     00:48:13.323    90 464 bytes    278 025 bytes   00:51:23.013
13              0:54:05.442     0:04:50.023     20 365 kbps     26 985 kbps     00:55:00.797    23 864 kbps     00:56:46.836    23 203 kbps     00:54:58.061    84 939 bytes    275 816 bytes   00:54:09.913
14              0:58:55.465     0:05:36.135     21 334 kbps     28 646 kbps     01:02:37.520    25 367 kbps     01:04:07.510    24 810 kbps     01:03:51.761    88 980 bytes    277 706 bytes   01:03:54.363
15              1:04:31.601     0:06:55.715     24 762 kbps     34 051 kbps     01:10:01.931    30 426 kbps     01:06:10.566    28 300 kbps     01:07:22.071    103 277 bytes   278 832 bytes   01:09:48.584
16              1:11:27.316     0:03:49.562     23 317 kbps     29 523 kbps     01:15:04.600    28 867 kbps     01:15:01.663    27 713 kbps     01:14:59.061    97 252 bytes    279 780 bytes   01:11:50.239
17              1:15:16.879     0:05:08.207     23 427 kbps     31 234 kbps     01:16:22.411    27 953 kbps     01:16:22.644    26 871 kbps     01:18:11.987    97 711 bytes    278 293 bytes   01:19:12.581
18              1:20:25.086     0:04:45.485     22 656 kbps     32 944 kbps     01:24:20.855    30 197 kbps     01:24:20.655    27 625 kbps     01:21:49.604    94 493 bytes    277 376 bytes   01:24:09.177
19              1:25:10.572     0:03:48.628     21 923 kbps     33 881 kbps     01:26:46.267    30 491 kbps     01:26:44.032    28 591 kbps     01:26:40.428    91 438 bytes    277 598 bytes   01:26:59.480
20              1:28:59.200     0:04:50.289     23 625 kbps     31 382 kbps     01:33:24.398    28 748 kbps     01:32:35.816    28 081 kbps     01:32:35.816    98 538 bytes    277 178 bytes   01:29:41.275
21              1:33:49.490     0:03:02.749     22 659 kbps     32 188 kbps     01:35:15.176    28 932 kbps     01:35:14.942    27 087 kbps     01:34:18.886    94 506 bytes    278 185 bytes   01:35:57.251
22              1:36:52.239     0:02:40.360     21 695 kbps     30 117 kbps     01:37:52.633    28 915 kbps     01:37:52.199    28 419 kbps     01:37:51.665    90 503 bytes    278 029 bytes   01:37:52.900
STREAM DIAGNOSTICS:
File            PID             Type            Codec           Language                Seconds                 Bitrate                 Bytes           Packets
----            ---             ----            -----           --------                --------------          --------------          -------------   -----
00000.M2TS      4113 (0x1011)   0x1B            AVC                                     5955,950                21 998                  16 377 574 790  89 201 942
00000.M2TS      4352 (0x1100)   0x80            LPCM            deu (German)            5955,950                1 543                   1 148 571 296   7 148 784
00000.M2TS      4353 (0x1101)   0x80            LPCM            deu (German)            5955,950                4 615                   3 436 182 176   19 063 424
00015.M2TS      4113 (0x1011)   0x1B            AVC                                     9,009                   750                     844 728         4 762
00016.M2TS      4113 (0x1011)   0x1B            AVC                                     7,307                   1 011                   923 122         5 303
00002.M2TS      4113 (0x1011)   0x1B            AVC                                     0,334                   146                     6 107           41
<---- END DETAILS PASTE ---->
********************
PLAYLIST: 00003.MPLS
********************
<--- BEGIN SUMMARY PASTE --->
Код:
Total   Video
Title                                                           Codec   Length  Movie Size      Disc Size       Bitrate Bitrate Main Audio Track                          Secondary Audio Track
-----                                                           ------  ------- --------------  --------------  ------- ------- ------------------                        ---------------------
00003.MPLS                                                      AVC     0:03:00 149 311 488     22 762 628 340  6,62    5,80    DD AC3 2.0 192Kbps
<---- END SUMMARY PASTE ---->
<--- BEGIN DETAILS PASTE --->
Код:
DISC INFO:
Disc Title:     Bach - Brandenburg Concertos 1-6 1080i Blu-ray AVC LPCM5.1
Disc Size:      22 762 628 340 bytes
Protection:     AACS
BD-Java:        No
PLAYLIST REPORT:
Name:                   00003.MPLS
Size:                   149 311 488 bytes
Length:                 0:03:00 (h:m:s)
Total Bitrate:          6,62 Mbps
Description:
VIDEO:
Codec                   Bitrate             Description
-----                   -------             -----------
MPEG-4 AVC Video        5795 kbps           576i / 25 fps / 16:9 / High Profile 4.1
AUDIO:
Codec                           Language        Bitrate         Description
-----                           --------        -------         -----------
Dolby Digital Audio             German          192 kbps        2.0 / 48 kHz / 192 kbps
Dolby Digital Audio             German          192 kbps        2.0 / 48 kHz / 192 kbps
FILES:
Name            Time In         Length          Size            Total Bitrate
----            -------         ------          ----            -------------
00006.M2TS      0:00:00.000     0:03:00.039     149 299 200     6 634
00010.M2TS      0:03:00.039     0:00:00.399     12 288          246
CHAPTERS:
Number          Time In         Length          Avg Video Rate  Max 1-Sec Rate  Max 1-Sec Time  Max 5-Sec Rate  Max 5-Sec Time  Max 10Sec Rate  Max 10Sec Time  Avg Frame Size  Max Frame Size  Max Frame Time
------          -------         ------          --------------  --------------  --------------  --------------  --------------  --------------  --------------  --------------  --------------  --------------
1               0:00:00.000     0:03:00.439     5 795 kbps      8 800 kbps      00:01:22.399    8 364 kbps      00:01:18.880    8 322 kbps      00:01:14.320    28 975 bytes    94 492 bytes    00:00:13.799
STREAM DIAGNOSTICS:
File            PID             Type            Codec           Language                Seconds                 Bitrate                 Bytes           Packets
----            ---             ----            -----           --------                --------------          --------------          -------------   -----
00006.M2TS      4113 (0x1011)   0x1B            AVC                                     180,040                 5 808                   130 704 508     715 230
00006.M2TS      4352 (0x1100)   0x81            AC3             deu (German)            180,040                 192                     4 324 608       28 155
00006.M2TS      4353 (0x1101)   0x81            AC3             deu (German)            180,040                 192                     4 324 608       28 155
00010.M2TS      4113 (0x1011)   0x1B            AVC                                     0,400                   48                      2 414           22
<---- END DETAILS PASTE ---->
********************
PLAYLIST: 00006.MPLS
********************
<--- BEGIN SUMMARY PASTE --->
Код:
Total   Video
Title                                                           Codec   Length  Movie Size      Disc Size       Bitrate Bitrate Main Audio Track                          Secondary Audio Track
-----                                                           ------  ------- --------------  --------------  ------- ------- ------------------                        ---------------------
00006.MPLS                                                      AVC     0:02:48 134 522 880     22 762 628 340  6,39    5,57    DD AC3 2.0 192Kbps
<---- END SUMMARY PASTE ---->
<--- BEGIN DETAILS PASTE --->
Код:
DISC INFO:
Disc Title:     Bach - Brandenburg Concertos 1-6 1080i Blu-ray AVC LPCM5.1
Disc Size:      22 762 628 340 bytes
Protection:     AACS
BD-Java:        No
PLAYLIST REPORT:
Name:                   00006.MPLS
Size:                   134 522 880 bytes
Length:                 0:02:48 (h:m:s)
Total Bitrate:          6,39 Mbps
Description:
VIDEO:
Codec                   Bitrate             Description
-----                   -------             -----------
MPEG-4 AVC Video        5574 kbps           576i / 25 fps / 16:9 / High Profile 4.1
AUDIO:
Codec                           Language        Bitrate         Description
-----                           --------        -------         -----------
Dolby Digital Audio             German          192 kbps        2.0 / 48 kHz / 192 kbps
Dolby Digital Audio             German          192 kbps        2.0 / 48 kHz / 192 kbps
FILES:
Name            Time In         Length          Size            Total Bitrate
----            -------         ------          ----            -------------
00009.M2TS      0:00:00.000     0:02:48.039     134 510 592     6 404
00010.M2TS      0:02:48.039     0:00:00.399     12 288          246
CHAPTERS:
Number          Time In         Length          Avg Video Rate  Max 1-Sec Rate  Max 1-Sec Time  Max 5-Sec Rate  Max 5-Sec Time  Max 10Sec Rate  Max 10Sec Time  Avg Frame Size  Max Frame Size  Max Frame Time
------          -------         ------          --------------  --------------  --------------  --------------  --------------  --------------  --------------  --------------  --------------  --------------
1               0:00:00.000     0:02:48.439     5 574 kbps      9 938 kbps      00:00:17.320    8 553 kbps      00:00:21.879    8 479 kbps      00:00:15.960    27 871 bytes    94 957 bytes    00:00:48.039
STREAM DIAGNOSTICS:
File            PID             Type            Codec           Language                Seconds                 Bitrate                 Bytes           Packets
----            ---             ----            -----           --------                --------------          --------------          -------------   -----
00009.M2TS      4113 (0x1011)   0x1B            AVC                                     168,040                 5 587                   117 360 495     642 354
00009.M2TS      4352 (0x1100)   0x81            AC3             deu (German)            168,040                 192                     4 036 608       26 280
00009.M2TS      4353 (0x1101)   0x81            AC3             deu (German)            168,040                 192                     4 036 608       26 280
00010.M2TS      4113 (0x1011)   0x1B            AVC                                     0,400                   48                      2 414           22
<---- END DETAILS PASTE ---->
********************
PLAYLIST: 00004.MPLS
********************
<--- BEGIN SUMMARY PASTE --->
Код:
Total   Video
Title                                                           Codec   Length  Movie Size      Disc Size       Bitrate Bitrate Main Audio Track                          Secondary Audio Track
-----                                                           ------  ------- --------------  --------------  ------- ------- ------------------                        ---------------------
00004.MPLS                                                      AVC     0:02:34 131 174 400     22 762 628 340  6,79    5,96    DD AC3 2.0 192Kbps
<---- END SUMMARY PASTE ---->
<--- BEGIN DETAILS PASTE --->
Код:
DISC INFO:
Disc Title:     Bach - Brandenburg Concertos 1-6 1080i Blu-ray AVC LPCM5.1
Disc Size:      22 762 628 340 bytes
Protection:     AACS
BD-Java:        No
PLAYLIST REPORT:
Name:                   00004.MPLS
Size:                   131 174 400 bytes
Length:                 0:02:34 (h:m:s)
Total Bitrate:          6,79 Mbps
Description:
VIDEO:
Codec                   Bitrate             Description
-----                   -------             -----------
MPEG-4 AVC Video        5964 kbps           576i / 25 fps / 16:9 / High Profile 4.1
AUDIO:
Codec                           Language        Bitrate         Description
-----                           --------        -------         -----------
Dolby Digital Audio             German          192 kbps        2.0 / 48 kHz / 192 kbps
Dolby Digital Audio             German          192 kbps        2.0 / 48 kHz / 192 kbps
FILES:
Name            Time In         Length          Size            Total Bitrate
----            -------         ------          ----            -------------
00001.M2TS      0:00:00.000     0:02:34.039     131 162 112     6 812
00010.M2TS      0:02:34.039     0:00:00.399     12 288          246
CHAPTERS:
Number          Time In         Length          Avg Video Rate  Max 1-Sec Rate  Max 1-Sec Time  Max 5-Sec Rate  Max 5-Sec Time  Max 10Sec Rate  Max 10Sec Time  Avg Frame Size  Max Frame Size  Max Frame Time
------          -------         ------          --------------  --------------  --------------  --------------  --------------  --------------  --------------  --------------  --------------  --------------
1               0:00:00.000     0:02:34.439     5 964 kbps      8 707 kbps      00:00:53.799    8 353 kbps      00:01:22.880    8 139 kbps      00:00:14.280    29 818 bytes    94 670 bytes    00:01:00.399
STREAM DIAGNOSTICS:
File            PID             Type            Codec           Language                Seconds                 Bitrate                 Bytes           Packets
----            ---             ----            -----           --------                --------------          --------------          -------------   -----
00001.M2TS      4113 (0x1011)   0x1B            AVC                                     154,040                 5 979                   115 126 517     629 815
00001.M2TS      4352 (0x1100)   0x81            AC3             deu (German)            154,040                 192                     3 696 384       24 065
00001.M2TS      4353 (0x1101)   0x81            AC3             deu (German)            154,040                 192                     3 696 384       24 065
00010.M2TS      4113 (0x1011)   0x1B            AVC                                     0,400                   48                      2 414           22
<---- END DETAILS PASTE ---->
********************
PLAYLIST: 00005.MPLS
********************
<--- BEGIN SUMMARY PASTE --->
Код:
Total   Video
Title                                                           Codec   Length  Movie Size      Disc Size       Bitrate Bitrate Main Audio Track                          Secondary Audio Track
-----                                                           ------  ------- --------------  --------------  ------- ------- ------------------                        ---------------------
00005.MPLS                                                      MPEG-2  0:02:29 135 763 968     22 762 628 340  7,26    6,42    DD AC3 2.0 192Kbps
<---- END SUMMARY PASTE ---->
<--- BEGIN DETAILS PASTE --->
Код:
DISC INFO:
Disc Title:     Bach - Brandenburg Concertos 1-6 1080i Blu-ray AVC LPCM5.1
Disc Size:      22 762 628 340 bytes
Protection:     AACS
BD-Java:        No
PLAYLIST REPORT:
Name:                   00005.MPLS
Size:                   135 763 968 bytes
Length:                 0:02:29 (h:m:s)
Total Bitrate:          7,26 Mbps
Description:
VIDEO:
Codec                   Bitrate             Description
-----                   -------             -----------
MPEG-2 Video            6421 kbps           480i / 29,970 fps / 16:9
AUDIO:
Codec                           Language        Bitrate         Description
-----                           --------        -------         -----------
Dolby Digital Audio             German          192 kbps        2.0 / 48 kHz / 192 kbps
Dolby Digital Audio             German          192 kbps        2.0 / 48 kHz / 192 kbps
FILES:
Name            Time In         Length          Size            Total Bitrate
----            -------         ------          ----            -------------
00004.M2TS      0:00:00.000     0:02:29.148     135 745 536     7 281
00005.M2TS      0:02:29.148     0:00:00.500     18 432          295
CHAPTERS:
Number          Time In         Length          Avg Video Rate  Max 1-Sec Rate  Max 1-Sec Time  Max 5-Sec Rate  Max 5-Sec Time  Max 10Sec Rate  Max 10Sec Time  Avg Frame Size  Max Frame Size  Max Frame Time
------          -------         ------          --------------  --------------  --------------  --------------  --------------  --------------  --------------  --------------  --------------  --------------
1               0:00:00.000     0:02:29.649     6 421 kbps      8 766 kbps      00:02:06.960    8 068 kbps      00:02:06.893    7 680 kbps      00:00:57.490    26 783 bytes    138 384 bytes   00:02:23.643
STREAM DIAGNOSTICS:
File            PID             Type            Codec           Language                Seconds                 Bitrate                 Bytes           Packets
----            ---             ----            -----           --------                --------------          --------------          -------------   -----
00004.M2TS      4113 (0x1011)   0x02            MPEG-2                                  149,149                 6 442                   120 109 914     655 355
00004.M2TS      4352 (0x1100)   0x81            AC3             deu (German)            149,149                 192                     3 579 648       23 305
00004.M2TS      4353 (0x1101)   0x81            AC3             deu (German)            149,149                 192                     3 579 648       23 305
00005.M2TS      4113 (0x1011)   0x02            MPEG-2                                  0,500                   158                     9 860           59
<---- END DETAILS PASTE ---->
********************
PLAYLIST: 00007.MPLS
********************
<--- BEGIN SUMMARY PASTE --->
Код:
Total   Video
Title                                                           Codec   Length  Movie Size      Disc Size       Bitrate Bitrate Main Audio Track                          Secondary Audio Track
-----                                                           ------  ------- --------------  --------------  ------- ------- ------------------                        ---------------------
00007.MPLS                                                      AVC     0:00:14 4 306 944       22 762 628 340  2,40    2,21
<---- END SUMMARY PASTE ---->
<--- BEGIN DETAILS PASTE --->
Код:
DISC INFO:
Disc Title:     Bach - Brandenburg Concertos 1-6 1080i Blu-ray AVC LPCM5.1
Disc Size:      22 762 628 340 bytes
Protection:     AACS
BD-Java:        No
PLAYLIST REPORT:
Name:                   00007.MPLS
Size:                   4 306 944 bytes
Length:                 0:00:14 (h:m:s)
Total Bitrate:          2,40 Mbps
Description:
VIDEO:
Codec                   Bitrate             Description
-----                   -------             -----------
MPEG-4 AVC Video        2213 kbps           1080i / 29,970 fps / 16:9 / High Profile 4.1
FILES:
Name            Time In         Length          Size            Total Bitrate
----            -------         ------          ----            -------------
00014.M2TS      0:00:00.000     0:00:14.047     4 294 656       2 446
00002.M2TS      0:00:14.047     0:00:00.333     12 288          295
CHAPTERS:
Number          Time In         Length          Avg Video Rate  Max 1-Sec Rate  Max 1-Sec Time  Max 5-Sec Rate  Max 5-Sec Time  Max 10Sec Rate  Max 10Sec Time  Avg Frame Size  Max Frame Size  Max Frame Time
------          -------         ------          --------------  --------------  --------------  --------------  --------------  --------------  --------------  --------------  --------------  --------------
1               0:00:00.000     0:00:14.381     2 213 kbps      6 549 kbps      00:00:00.-033   2 713 kbps      00:00:00.-033   2 163 kbps      00:00:00.-033   9 232 bytes     118 833 bytes   00:00:08.408
STREAM DIAGNOSTICS:
File            PID             Type            Codec           Language                Seconds                 Bitrate                 Bytes           Packets
----            ---             ----            -----           --------                --------------          --------------          -------------   -----
00014.M2TS      4113 (0x1011)   0x1B            AVC                                     14,047                  2 262                   3 972 736       21 896
00002.M2TS      4113 (0x1011)   0x1B            AVC                                     0,334                   146                     6 107           41
<---- END DETAILS PASTE ---->



Показать сообщения:    

Текущее время: 10-Дек 07:59

Часовой пояс: UTC + 3


Вы не можете начинать темы
Вы не можете отвечать на сообщения
Вы не можете редактировать свои сообщения
Вы не можете удалять свои сообщения
Вы не можете голосовать в опросах
Вы не можете прикреплять файлы к сообщениям
Вы не можете скачивать файлы