Малхолланд Драйв / Mulholland Dr. (Дэвид Линч / David Lynch) [2001, Франция, США, драма, триллер, BDRip 720p] [Criterion Collection] Dub + 4x DVO + 4x AVO + Sub (Rus, Eng) + Original Eng


 

[Цитировать]

Малхолланд Драйв / Mulholland Dr.
Страна: Франция, США
Жанр: драма, триллер
Год выпуска: 2001
Продолжительность: 02:27:13
Перевод: Профессиональный (дублированный) Невафильм
Перевод: Профессиональный (двухголосый закадровый) CP Digital
Перевод: Профессиональный (двухголосый закадровый) Видеосервис
Перевод: Профессиональный (двухголосый закадровый) Карусель
Перевод: Профессиональный (двухголосый закадровый) П.Гланц и И.Королева
Перевод: Авторский (одноголосый закадровый) Юрий Сербин
Перевод: Авторский (одноголосый закадровый) Юрий Живов
Перевод: Авторский (одноголосый закадровый) Василий Горчаков
Перевод: Авторский (одноголосый закадровый) Сергей Визгунов
Cубтитры: русские (3 вида), английские
Оригинальная аудиодорожка: английский-Режиссер: Дэвид Линч / David Lynch
В ролях: Наоми Уоттс, Лаура Хэрринг, Джастин Теру, Энн Миллер, Дэн Хедайя, Марк Пеллегрино, Брент Брискоу, Роберт Форстер, ЛориХойринг, Анджело Бадаламенти, Майкл Дес Баррес, Кэтрин Таун, Мая Бонд, Элизабет Лэки, Рена Риффел
Описание: Загадочная девушка, страдающая потерей памяти после автомобильной аварии, выбирает себе имя Рита с рекламного плакатак фильму с Ритой Хейворт и пытается с новым именем начать в Голливуде новую жизнь. Но тайны прошлого неотступно преследуют ее. Кто былите двое мужчин, что сидели в одной машине с ней и погибли в аварии? Почему полиция подозревает, что она была похищена ими? И случайноли в ее жизни появляется новая подруга, начинающая актриса Бетти?
IMDb || КиноПоиск-Тип релиза: BDRip 720p [DON]
Контейнер: MKV
Видео: x264/AVC, 1280x692 at 23.976 fps, 13356 kbps
Аудио#1: Russian: 48 kHz, AC3, 5.1 ch, 384 kbps
Аудио#2: Russian: 48 kHz, AC3, 5.1 ch, 448 kbps
Аудио#3: Russian: 48 kHz, AC3, 5.1 ch, 640 kbps
Аудио#4: Russian: 48 kHz, AC3, 5.1 ch, 640 kbps
Аудио#5: Russian: 48 kHz, AC3, 5.1 ch, 640 kbps
Аудио#6: Russian: 48 kHz, AC3, 5.1 ch, 640 kbps
Аудио#7: Russian: 48 kHz, AC3, 5.1 ch, 640 kbps
Аудио#8: Russian: 48 kHz, AC3, 5.1 ch, 640 kbps
Аудио#9: Russian: 48 kHz, AC3, 2.0 ch, 192 kbps
Аудио#10: English: 48 kHz, AC3, 5.1 ch, 640 kbps
Формат субтитров: softsub (SRT)
Сэмпл

Дополнительно

Реставрация проведена под руководством режиссера и оператора фильма.-Дорожки с ремукса. Дубляж, CP Digital и Визгунов подогнаны без перекодирования.

MediaInfo

General
Unique ID : 231788760881853571023729548155856763422 (0xAE60E43BAB46E5648E4C19B42A3E3A1E)
Complete name : Mulholland Dr.2001.Criterion.720p.x264-DON.
Format : Matroska
Format version : Version 2
File size : 19.4 GiB
Duration : 2h 27mn
Overall bit rate : 18.9 Mbps
Movie name :
Writing application : mkvmerge v5.0.1 ('Es ist Sommer') built on Nov 6 2011 16:23:40
Writing library : libebml v1.2.2 + libmatroska v1.3.0
Video
ID : 1
Format : AVC
Format/Info : Advanced Video Codec
Format profile : High@L4.1
Format settings, CABAC : Yes
Format settings, ReFrames : 9 frames
Codec ID : V_MPEG4/ISO/AVC
Duration : 2h 27mn
Bit rate : 13.0 Mbps
Width : 1 280 pixels
Height : 692 pixels
Display aspect ratio : 1.85:1
Frame rate mode : Constant
Frame rate : 23.976 fps
Color space : YUV
Chroma subsampling : 4:2:0
Bit depth : 8 bits
Scan type : Progressive
Bits/(Pixel*Frame) : 0.611
Stream size : 13.4 GiB (69%)
Title : Mulholland Dr.2001.Criterion.720p.x264-DON.
Writing library : x264 core 148 r2597kMod e86f3a1
Encoding settings : cabac=1 / ref=9 / deblock=1:-3:-3 / analyse=0x3:0x133 / me=umh / subme=11 / psy=1 / fade_compensate=0.00 / psy_rd=1.10:0.00 / mixed_ref=1 / me_range=32 / chroma_me=1 / trellis=2 / 8x8dct=1 / cqm=0 / deadzone=21,11 / fast_pskip=0 / chroma_qp_offset=-2 / threads=12 / lookahead_threads=3 / sliced_threads=0 / nr=0 / decimate=0 / interlaced=0 / bluray_compat=0 / constrained_intra=0 / fgo=0 / bframes=10 / b_pyramid=2 / b_adapt=2 / b_bias=0 / direct=3 / weightb=1 / open_gop=0 / weightp=2 / keyint=250 / keyint_min=23 / scenecut=40 / intra_refresh=0 / rc_lookahead=60 / rc=crf / mbtree=0 / crf=19.5000 / qcomp=0.60 / qpmin=0 / qpmax=69 / qpstep=4 / vbv_maxrate=62500 / vbv_bufsize=78125 / crf_max=0.0 / nal_hrd=none / filler=0 / ip_ratio=1.20 / pb_ratio=1.10 / aq=3:0.65
Language : English
Default : Yes
Forced : No
Audio #1
ID : 2
Format : AC-3
Format/Info : Audio Coding 3
Mode extension : CM (complete main)
Format settings, Endianness : Big
Codec ID : A_AC3
Duration : 2h 27mn
Bit rate mode : Constant
Bit rate : 384 Kbps
Channel(s) : 6 channels
Channel positions : Front: L C R, Side: L R, LFE
Sampling rate : 48.0 KHz
Bit depth : 16 bits
Compression mode : Lossy
Stream size : 404 MiB (2%)
Title : Дубляж
Language : Russian
Default : Yes
Forced : No
Audio #2
ID : 3
Format : AC-3
Format/Info : Audio Coding 3
Mode extension : CM (complete main)
Format settings, Endianness : Big
Codec ID : A_AC3
Duration : 2h 27mn
Bit rate mode : Constant
Bit rate : 448 Kbps
Channel(s) : 6 channels
Channel positions : Front: L C R, Side: L R, LFE
Sampling rate : 48.0 KHz
Bit depth : 16 bits
Compression mode : Lossy
Stream size : 472 MiB (2%)
Title : CP Digital
Language : Russian
Default : No
Forced : No
Audio #3
ID : 4
Format : AC-3
Format/Info : Audio Coding 3
Mode extension : CM (complete main)
Format settings, Endianness : Big
Codec ID : A_AC3
Duration : 2h 27mn
Bit rate mode : Constant
Bit rate : 640 Kbps
Channel(s) : 6 channels
Channel positions : Front: L C R, Side: L R, LFE
Sampling rate : 48.0 KHz
Bit depth : 16 bits
Compression mode : Lossy
Stream size : 674 MiB (3%)
Title : Видеосервис
Language : Russian
Default : No
Forced : No
Audio #4
ID : 5
Format : AC-3
Format/Info : Audio Coding 3
Mode extension : CM (complete main)
Format settings, Endianness : Big
Codec ID : A_AC3
Duration : 2h 27mn
Bit rate mode : Constant
Bit rate : 640 Kbps
Channel(s) : 6 channels
Channel positions : Front: L C R, Side: L R, LFE
Sampling rate : 48.0 KHz
Bit depth : 16 bits
Compression mode : Lossy
Stream size : 674 MiB (3%)
Title : Карусель
Language : Russian
Default : No
Forced : No
Audio #5
ID : 6
Format : AC-3
Format/Info : Audio Coding 3
Mode extension : CM (complete main)
Format settings, Endianness : Big
Codec ID : A_AC3
Duration : 2h 27mn
Bit rate mode : Constant
Bit rate : 640 Kbps
Channel(s) : 6 channels
Channel positions : Front: L C R, Side: L R, LFE
Sampling rate : 48.0 KHz
Bit depth : 16 bits
Compression mode : Lossy
Stream size : 674 MiB (3%)
Title : П.Гланц и И.Королева
Language : Russian
Default : No
Forced : No
Audio #6
ID : 7
Format : AC-3
Format/Info : Audio Coding 3
Mode extension : CM (complete main)
Format settings, Endianness : Big
Codec ID : A_AC3
Duration : 2h 27mn
Bit rate mode : Constant
Bit rate : 640 Kbps
Channel(s) : 6 channels
Channel positions : Front: L C R, Side: L R, LFE
Sampling rate : 48.0 KHz
Bit depth : 16 bits
Compression mode : Lossy
Stream size : 674 MiB (3%)
Title : Ю.Сербин
Language : Russian
Default : No
Forced : No
Audio #7
ID : 8
Format : AC-3
Format/Info : Audio Coding 3
Mode extension : CM (complete main)
Format settings, Endianness : Big
Codec ID : A_AC3
Duration : 2h 27mn
Bit rate mode : Constant
Bit rate : 640 Kbps
Channel(s) : 6 channels
Channel positions : Front: L C R, Side: L R, LFE
Sampling rate : 48.0 KHz
Bit depth : 16 bits
Compression mode : Lossy
Stream size : 674 MiB (3%)
Title : Ю.Живов
Language : Russian
Default : No
Forced : No
Audio #8
ID : 9
Format : AC-3
Format/Info : Audio Coding 3
Mode extension : CM (complete main)
Format settings, Endianness : Big
Codec ID : A_AC3
Duration : 2h 27mn
Bit rate mode : Constant
Bit rate : 640 Kbps
Channel(s) : 6 channels
Channel positions : Front: L C R, Side: L R, LFE
Sampling rate : 48.0 KHz
Bit depth : 16 bits
Compression mode : Lossy
Stream size : 674 MiB (3%)
Title : В.Горчаков
Language : Russian
Default : No
Forced : No
Audio #9
ID : 10
Format : AC-3
Format/Info : Audio Coding 3
Mode extension : CM (complete main)
Format settings, Endianness : Big
Codec ID : A_AC3
Duration : 2h 27mn
Bit rate mode : Constant
Bit rate : 192 Kbps
Channel(s) : 2 channels
Channel positions : Front: L R
Sampling rate : 48.0 KHz
Bit depth : 16 bits
Compression mode : Lossy
Stream size : 202 MiB (1%)
Title : С.Визгунов
Language : Russian
Default : No
Forced : No
Audio #10
ID : 11
Format : AC-3
Format/Info : Audio Coding 3
Mode extension : CM (complete main)
Format settings, Endianness : Big
Codec ID : A_AC3
Duration : 2h 27mn
Bit rate mode : Constant
Bit rate : 640 Kbps
Channel(s) : 6 channels
Channel positions : Front: L C R, Side: L R, LFE
Sampling rate : 48.0 KHz
Bit depth : 16 bits
Compression mode : Lossy
Stream size : 674 MiB (3%)
Language : English
Default : No
Forced : No
Text #1
ID : 12
Format : UTF-8
Codec ID : S_TEXT/UTF8
Codec ID/Info : UTF-8 Plain Text
Title : CP Digital
Language : Russian
Default : No
Forced : No
Text #2
ID : 13
Format : UTF-8
Codec ID : S_TEXT/UTF8
Codec ID/Info : UTF-8 Plain Text
Language : Russian
Default : No
Forced : No
Text #3
ID : 14
Format : UTF-8
Codec ID : S_TEXT/UTF8
Codec ID/Info : UTF-8 Plain Text
Language : Russian
Default : No
Forced : No
Text #4
ID : 15
Format : UTF-8
Codec ID : S_TEXT/UTF8
Codec ID/Info : UTF-8 Plain Text
Language : English
Default : No
Forced : No



Показать сообщения:    

Текущее время: 07-Дек 11:38

Часовой пояс: UTC + 3


Вы не можете начинать темы
Вы не можете отвечать на сообщения
Вы не можете редактировать свои сообщения
Вы не можете удалять свои сообщения
Вы не можете голосовать в опросах
Вы не можете прикреплять файлы к сообщениям
Вы не можете скачивать файлы