Страстная неделя / Wielki tydzien (Анджей Вайда / Andrzej Wajda) [1995, Польша, Германия, Франция, драма, военный, HDTV 1080i] DVO (Нота) + Ukr DVO + Original Pol


 

[Цитировать]

Страстная неделя / Wielki tydzien- Страна: Польша, Германия, Франция
Студия: Agency for Film Production, Berliner Spiele, Canal+, Héritage Films, Studio Babelsberg, Telewizja Polska (TVP)
Жанр: драма, военный
Год выпуска: 1995
Продолжительность: 01:32:39-Перевод: Профессиональный (двухголосый закадровый) - студия "Нота" по заказу ВГТРК, 1997
Cубтитры: нет
Оригинальная аудиодорожка: польский-Режиссер: Анджей Вайда / Andrzej Wajda
В ролях: Беата Фудалей, Войцех Маляйкат, Магдалена Важеха, Божена Дыкель, Цезары Пазура, Войцех Пшоняк, Агнешка Котулянка, Артур Барчиш, Кшиштоф Строиньский, Михал Павлицкий...- -Описание: Варшава 1943 года. Восстание в гетто застает оккупационные власти врасплох. Ян помогает молодой еврейке Ирене скрыться в его пригородном доме. Но передышка длится недолго: к концу недели восстание подавлено, город горит. Однако Ирена продолжает борьбу за жизнь…-Доп. информация:
- За исходную русскую звуковую дорожку спасибо miklew27.
- За исходную украинскую звуковую дорожку спасибо kicyunya@exua.
- Запись фильма со спутниковой трансляции и работа со звуком - xfiles.-Семпл: http://sendfile.su/1167725-Тип релиза: HDTV 1080i
Контейнер: TS
Видео: 1920x1080 (16:9), 25.000 fps, AVC, ~6223 kbps, 0.120 bits/pixel
Аудио 1: Русский, 48.0 KHz, AC3, 1 ch, 192 kbps | Студия "Нота" по заказу ВГТРК
Аудио 2: Українська, 48.0 KHz, AC3, 1 ch, 192 kbps | Національна телекомпанія України | Ніна Касторф та Олександр Завальський
Аудио 3: Polish, 48.0 KHz, AC3, 2 ch, 192 kbps

MediaInfo

GeneralID : 1 (0x1)Complete name : Wielki Tydzien 1995 TVP HD 1080i.rus.ukr.pol.tsFormat : MPEG-TSFile size : 4.63 GiBDuration : 1h 32mnOverall bit rate mode : VariableOverall bit rate : 7 159 KbpsMaximum Overall bit rate : 35.5 Mbps
VideoID : 4113 (0x1011)Menu ID : 1 (0x1)Format : AVCFormat/Info : Advanced Video CodecFormat profile : High@L4Format settings, CABAC : YesFormat settings, ReFrames : 4 framesCodec ID : 27Duration : 1h 32mnBit rate : 6 223 KbpsWidth : 1 920 pixelsHeight : 1 080 pixelsDisplay aspect ratio : 16:9Frame rate : 25.000 fpsColor space : YUVChroma subsampling : 4:2:0Bit depth : 8 bitsScan type : InterlacedScan order : Top Field FirstBits/(Pixel*Frame) : 0.120Stream size : 4.03 GiB (87%)Color range : LimitedColor primaries : BT.709Transfer characteristics : BT.709Matrix coefficients : BT.709
Audio #1ID : 4352 (0x1100)Menu ID : 1 (0x1)Format : AC-3Format/Info : Audio Coding 3Mode extension : CM (complete main)Format settings, Endianness : BigCodec ID : 129Duration : 1h 32mnBit rate mode : ConstantBit rate : 192 KbpsChannel(s) : 1 channelChannel positions : Front: CSampling rate : 48.0 KHzCompression mode : LossyStream size : 127 MiB (3%)Language : Russian
Audio #2ID : 4353 (0x1101)Menu ID : 1 (0x1)Format : AC-3Format/Info : Audio Coding 3Mode extension : CM (complete main)Format settings, Endianness : BigCodec ID : 129Duration : 1h 32mnBit rate mode : ConstantBit rate : 192 KbpsChannel(s) : 1 channelChannel positions : Front: CSampling rate : 48.0 KHzCompression mode : LossyStream size : 127 MiB (3%)Language : Ukrainian
Audio #3ID : 4354 (0x1102)Menu ID : 1 (0x1)Format : AC-3Format/Info : Audio Coding 3Mode extension : CM (complete main)Format settings, Endianness : BigCodec ID : 129Duration : 1h 32mnBit rate mode : ConstantBit rate : 192 KbpsChannel(s) : 2 channelsChannel positions : Front: L RSampling rate : 48.0 KHzCompression mode : LossyStream size : 127 MiB (3%)Language : Polish



Показать сообщения:    

Текущее время: 09-Дек 06:52

Часовой пояс: UTC + 3


Вы не можете начинать темы
Вы не можете отвечать на сообщения
Вы не можете редактировать свои сообщения
Вы не можете удалять свои сообщения
Вы не можете голосовать в опросах
Вы не можете прикреплять файлы к сообщениям
Вы не можете скачивать файлы