Я обвиняю / J'accuse / I accuse (Абель Ганс / Abel Gance) [1919 г., Франция, драма, военный, притча, немое кино, BDRip 720p] Original + Sub (Rus, Eng)


 

[Цитировать]

Я обвиняю / J'accuse- Год выпуска: 1919
Страна: Франция
Жанр: драма, военный, притча
Продолжительность: 02:45:00
Перевод: Субтитры
Оригинальная аудиодорожка: музыкальное сопровождение
Cубтитры: Русские (иван7805), английские (Flicker Alley), французские интертитры-Режиссер: Абель Ганс / Abel Gance
В ролях: Ромуальд Жубе, Северин-Марс, Мариз Дауврай, Максим Дежарден, Анжела Ги, Манчини, Элизабет Низан, Пьер Данис, Блез Сандрар, Пол Дюк
Описание:
Война разлучала влюбленных. Герой, пройдя все ужасы сражений и, оставшись в живых, дал клятву рассказать людям правду об увиденном.
«Я обвиняю» принято относить к «антивоенному кино», но точнее было бы охарактеризовать его как «фильм–катастрофа» (если это определение не было бы опошлено поделками типа «Послезавтра»)…
И еще точнее - «Я обвиняю» - фильм о катастрофе сознания человека начала ХХ века, ввергнутого в огненную бездну Первой мировой войны.
Войны, с жестокой беспощадностью показавшей, что все надежды человечества на «Светлое Будущее» обратились в прах, и что мир уже НИКОГДА больше не будет таким, каким он был до 2 августа 1914 года.
Войны, в которой и победители и побежденные мучительно задавали себе вопрос – «Во имя чего мы сражались, во имя чего терпели страдания и умирали?» - откройте книги Ремарка и Барбюса, Олдингтона и Артема Веселого…- | IMDb | Сэмпл-Качество: BDRip 720p (KESH)
Контейнер: MKV
Видео: x264, 992x720 (1.38:1), 25 fps, 8312 kbps
Аудио: AC3 2.0, 48 kHz, 640 kbps
Формат субтитров: softsub (SRT)MIGeneral
Unique ID : 219367774174582795847392425288510975419 (0xA508B24E963DA45A9584447EE74FADBB)
Complete name : J'accuse! AKA I Accuse 1919 720p BluRay DD2.0 x264-KESH.mkv
Format : Matroska
Format version : Version 2
File size : 10.5 GiB
Duration : 2h 45mn
Overall bit rate : 9 134 Kbps
Movie name : J'accuse! / Я обвиняю (1919)
Encoded date : UTC 2015-10-23 16:21:34
Writing application : mkvmerge v8.3.0 ('Over the Horizon') 64bit
Writing library : libebml v1.3.1 + libmatroska v1.4.2
Attachements : cover.jpg
Video
ID : 1
Format : AVC
Format/Info : Advanced Video Codec
Format profile : High@L4.1
Format settings, CABAC : Yes
Format settings, ReFrames : 10 frames
Codec ID : V_MPEG4/ISO/AVC
Duration : 2h 45mn
Bit rate : 8 312 Kbps
Width : 992 pixels
Height : 720 pixels
Display aspect ratio : 1.378
Frame rate mode : Constant
Frame rate : 25.000 fps
Color space : YUV
Chroma subsampling : 4:2:0
Bit depth : 8 bits
Scan type : Progressive
Bits/(Pixel*Frame) : 0.466
Stream size : 9.58 GiB (91%)
Title : J'accuse! AKA I Accuse 1919 720p BluRay AAC2.0 x264-KESH
Writing library : x264 core 142 r2479 dd79a61
Encoding settings : cabac=1 / ref=11 / deblock=1:-3:-3 / analyse=0x3:0x133 / me=tesa / subme=11 / psy=1 / psy_rd=1.00:0.10 / mixed_ref=1 / me_range=32 / chroma_me=1 / trellis=2 / 8x8dct=1 / cqm=0 / deadzone=21,11 / fast_pskip=0 / chroma_qp_offset=-3 / threads=12 / lookahead_threads=3 / sliced_threads=0 / nr=0 / decimate=1 / interlaced=0 / bluray_compat=0 / constrained_intra=0 / bframes=16 / b_pyramid=1 / b_adapt=2 / b_bias=0 / direct=3 / weightb=1 / open_gop=0 / weightp=2 / keyint=250 / keyint_min=25 / scenecut=40 / intra_refresh=0 / rc_lookahead=60 / rc=crf / mbtree=1 / crf=15.0 / qcomp=0.60 / qpmin=0 / qpmax=69 / qpstep=4 / vbv_maxrate=62500 / vbv_bufsize=78125 / crf_max=0.0 / nal_hrd=none / filler=0 / ip_ratio=1.40 / aq=1:0.90
Language : French
Default : Yes
Forced : No
Color range : Limited
Color primaries : BT.709
Transfer characteristics : BT.709
Matrix coefficients : BT.709
Audio
ID : 2
Format : AC-3
Format/Info : Audio Coding 3
Mode extension : CM (complete main)
Format settings, Endianness : Big
Codec ID : A_AC3
Duration : 2h 45mn
Bit rate mode : Constant
Bit rate : 640 Kbps
Channel(s) : 2 channels
Channel positions : Front: L R
Sampling rate : 48.0 KHz
Compression mode : Lossy
Stream size : 755 MiB (7%)
Title : Score by Robert Israel
Default : Yes
Forced : No
Text #1
ID : 3
Format : UTF-8
Codec ID : S_TEXT/UTF8
Codec ID/Info : UTF-8 Plain Text
Title : иван7805
Language : Russian
Default : Yes
Forced : No
Text #2
ID : 4
Format : UTF-8
Codec ID : S_TEXT/UTF8
Codec ID/Info : UTF-8 Plain Text
Title : Flicker Alley
Language : English
Default : No
Forced : No
Menu
00:00:00.000 : en:Chapter 01
00:06:27.000 : en:Chapter 02
00:11:47.400 : en:Chapter 03
00:18:37.880 : en:Chapter 04
00:28:04.600 : en:Chapter 05
00:38:13.920 : en:Chapter 06
00:50:18.480 : en:Chapter 07
00:59:39.280 : en:Chapter 08
01:08:02.280 : en:Chapter 09
01:17:34.520 : en:Chapter 10
01:28:38.720 : en:Chapter 11
01:40:00.960 : en:Chapter 12
01:52:50.160 : en:Chapter 13
02:01:08.440 : en:Chapter 14
02:11:34.160 : en:Chapter 15
02:20:11.720 : en:Chapter 16
02:27:42.400 : en:Chapter 17
02:36:43.279 : en:Chapter 18



Показать сообщения:    

Текущее время: 11-Дек 07:13

Часовой пояс: UTC + 3


Вы не можете начинать темы
Вы не можете отвечать на сообщения
Вы не можете редактировать свои сообщения
Вы не можете удалять свои сообщения
Вы не можете голосовать в опросах
Вы не можете прикреплять файлы к сообщениям
Вы не можете скачивать файлы