(Choral music) Les Petits Chanteurs a la Croix de Bois - Le monde musical des Petits Chanteurs a la Croix de Bois - Bernard Houdy, Andre Livernaux, Daniel White - 1989, FLAC (image+.cue) lossless


Статистика раздачи [Обновить пиров]
Размер:  346 MB   |    Зарегистрирован:  1 год   |    Скачан:  0 раз

Полного источника не было: Никогда

Личеров:  4  [  0 KB/s  ]   Подробная статистика пиров
 
   
 
 
 

[Цитировать]

Les Petits Chanteurs a la Croix de Bois - Le monde musical des Petits Chanteurs a la Croix de Bois
Жанр: Choral music
Страна-производитель диска: France
Год издания диска: 1989
Издатель (лейбл): Forlane international
Номер по каталогу: UCD 19019
Аудиокодек: FLAC
Тип рипа: image+.cue
Битрейт аудио: lossless
Продолжительность: 01:03:43
Источник: собственный рип
Наличие сканов в содержимом раздачи: да
Треклист:
01. Le Temps des Cerises (Traditional song) (4:34)
02. Sur L'Pont du Nord (Traditional song) (3:28)
03. La Nuit (Jean-Philippe Rameau) (3:49)
04. Aux Marches du Palais (Traditional song, harmonisation Daniel White) (2:54)
05. Voici le Mois de Mai (Traditional song) (2:04)
06. Douce Nuit (Silent Night/Stille Nacht, F. Grueber/J. Mohr) (3:59)
07. Va Mon Ami Va (Traditional song, harmonisation Daniel White) (3:42)
08. La Paques des Bois (Andre Livernaux/Ivan Pastor) (3:12)
09. Vive la Rose (Traditional song) (2:49)
10. L'Amour de Moy (Traditional song) (2:33)
11. Ave Verum Corpus (Francis Poulenc - Motet a 3 voix de femme pour les Saluts du Tres Saint Sacrement) (2:26)
12. Brave Marin (Traditional song) (4:14)
13. Ce Mois de May (Climent Janequin) (1:13)
14. C'etait Mon Copain (Louis Amade - Gilbert Becaud) (3:10)
15. Alphabet ( Wolfgang Amadeus Mozart) (1:42)
16. Dans les Prisons de Nantes (Traditional song) (3:00)
17. Le Roy A Fait Battre Tambour (Traditional song) (3:53)
18. Ave Maria (Tomas Luis da Vittoria - Motet a 4 voix egales pour les Offices de la Tres Sainte Vierge) (2:56)
19. Mountain Nights (Heggi Ejszakak, Zoltan Kodaly) (4:36)
20. Go Yan Eubone (Folklore Coreen) (3:27)

Исполнители:
Les Petits Chanteurs a la Croix de Bois (The Little Singers of Paris \ Little Singers of the Wooden Cross)
Direction: Bernard Houdy

Лог создания рипа

Exact Audio Copy V1.0 beta 3 from 29. August 2011
Отчёт EAC об извлечении, выполненном 5. ноября 2015, 14:30
Les Petits Chanteurs a la Croix de Bois / Le monde musical des Petits Chanteurs a la Croix de Bois
Дисковод: ASUS DRW-1814BL Adapter: 3 ID: 5
Режим чтения : ДостоверностьИспользование точного потока : ДаОтключение кэша аудио : ДаИспользование указателей C2 : Нет
Коррекция смещения при чтении : 6Способность читать области Lead-in и Lead-out : НетЗаполнение пропущенных сэмплов тишиной : ДаУдаление блоков с тишиной в начале и конце : НетПри вычислениях CRC использовались нулевые сэмплы : ДаИнтерфейс : Встроенный Win32-интерфейс для Win NT/2000
Выходной формат : Пользовательский кодировщикВыбранный битрейт : 128 kBit/sКачество : ВысокийДобавление ID3-тега : НетУтилита сжатия : C:\Program Files\Exact Audio Copy\Flac\flac.exeДополнительные параметры : -V -8 -T "Date=%year%" -T "Genre=%genre%" %source%
TOC извлечённого CD
Трек | Старт | Длительность | Начальный сектор | Конечный сектор --------------------------------------------------------------------- 1 | 0:00.33 | 4:34.02 | 33 | 20584 2 | 4:34.35 | 3:28.18 | 20585 | 36202 3 | 8:02.53 | 3:48.60 | 36203 | 53362 4 | 11:51.38 | 2:53.70 | 53363 | 66407 5 | 14:45.33 | 2:04.37 | 66408 | 75744 6 | 16:49.70 | 3:59.33 | 75745 | 93702 7 | 20:49.28 | 3:42.22 | 93703 | 110374 8 | 24:31.50 | 3:12.28 | 110375 | 124802 9 | 27:44.03 | 2:48.52 | 124803 | 137454 10 | 30:32.55 | 2:32.48 | 137455 | 148902 11 | 33:05.28 | 2:26.10 | 148903 | 159862 12 | 35:31.38 | 4:13.57 | 159863 | 178894 13 | 39:45.20 | 1:13.25 | 178895 | 184394 14 | 40:58.45 | 3:10.33 | 184395 | 198677 15 | 44:09.03 | 1:42.25 | 198678 | 206352 16 | 45:51.28 | 2:59.70 | 206353 | 219847 17 | 48:51.23 | 3:53.20 | 219848 | 237342 18 | 52:44.43 | 2:56.00 | 237343 | 250542 19 | 55:40.43 | 4:35.60 | 250543 | 271227 20 | 60:16.28 | 3:27.10 | 271228 | 286762
Характеристики диапазона извлечения и сообщения об ошибках
Выбранный диапазон
Имя файла C:\Documents and Settings\biotox\Рабочий стол\Новая папка (3)\Les Petits Chanteurs a la Croix de Bois - Le monde musical des Petits Chanteurs a la Croix de Bois.wav
Пиковый уровень 100.0 % Скорость извлечения 7.2 X Качество диапазона 99.9 % CRC теста BEF1012B CRC копии BEF1012B Копирование... OK
Ошибок не произошло
AccurateRip: сводка
Трек 1 точность не определена (достоверность 1) [EF553F47], AccurateRip вернул [A700B6DE] (AR v2)Трек 2 точность не определена (достоверность 1) [322FBDC8], AccurateRip вернул [F547223F] (AR v2)Трек 3 точность не определена (достоверность 1) [6EB18066], AccurateRip вернул [170435DC] (AR v2)Трек 4 точность не определена (достоверность 1) [6BAE467C], AccurateRip вернул [28A1F6B2] (AR v2)Трек 5 точность не определена (достоверность 1) [F055D9B5], AccurateRip вернул [F15FCF33] (AR v2)Трек 6 точность не определена (достоверность 1) [BB898339], AccurateRip вернул [41D0B582] (AR v2)Трек 7 точность не определена (достоверность 1) [0B4B2D00], AccurateRip вернул [9BA6AE04] (AR v2)Трек 8 точность не определена (достоверность 1) [94B5FB1B], AccurateRip вернул [4C50D12F] (AR v2)Трек 9 точность не определена (достоверность 1) [8D8AD794], AccurateRip вернул [FF930459] (AR v2)Трек 10 точность не определена (достоверность 1) [10641A5B], AccurateRip вернул [87B492DA] (AR v2)Трек 11 точность не определена (достоверность 1) [EFFB7CA1], AccurateRip вернул [ABC75D05] (AR v2)Трек 12 точность не определена (достоверность 1) [294F7015], AccurateRip вернул [D200D22D] (AR v2)Трек 13 точность не определена (достоверность 1) [C3EDE73B], AccurateRip вернул [985B207C] (AR v2)Трек 14 точность не определена (достоверность 1) [EABA353A], AccurateRip вернул [C49E6B2B] (AR v2)Трек 15 точность не определена (достоверность 1) [6925EA93], AccurateRip вернул [D2487B11] (AR v2)Трек 16 точность не определена (достоверность 1) [1C9F1598], AccurateRip вернул [155BA71E] (AR v2)Трек 17 точность не определена (достоверность 1) [55408246], AccurateRip вернул [3C2F2A21] (AR v2)Трек 18 точность не определена (достоверность 1) [226C2A25], AccurateRip вернул [FB91257E] (AR v2)Трек 19 точность не определена (достоверность 1) [3B73F7AD], AccurateRip вернул [6A33554A] (AR v2)Трек 20 точность не определена (достоверность 1) [70599C87], AccurateRip вернул [6B86081B] (AR v2)
Ни один трек не прошёл проверки на точностьВ вашей базе может быть иной вариант штамповки диска
Конец отчёта
==== Контрольная сумма отчёта CAA176AD815B714D95E3006740D3BD37D9F3E8A387C735F74C82DC1D2CA72FDC ====

Замер динамического диапазона

foobar2000 1.2.9 / Замер динамического диапазона (DR) 1.1.1Дата отчёта: 2015-11-08 16:41:47
--------------------------------------------------------------------------------Анализ: Les Petits Chanteurs a la Croix de Bois / Le monde musical des Petits Chanteurs a la Croix de Bois--------------------------------------------------------------------------------
DR Пики RMS Продолжительность трека--------------------------------------------------------------------------------DR13 -4.24 дБ -21.85 дБ 4:34 01-Le Temps des CerisesDR13 -2.28 дБ -19.24 дБ 3:28 02-Sur L'Pont du NordDR16 -2.44 дБ -27.66 дБ 3:49 03-La NuitDR14 -5.25 дБ -24.32 дБ 2:54 04-Aux Marches du PalaisDR14 -1.19 дБ -18.25 дБ 2:04 05-Voici le Mois de MaiDR14 -5.27 дБ -27.01 дБ 3:59 06-Douce NuitDR14 -2.80 дБ -21.92 дБ 3:42 07-Va Mon Ami VaDR13 -1.02 дБ -20.02 дБ 3:12 08-La Paques des BoisDR12 -2.66 дБ -20.39 дБ 2:49 09-Vive la RoseDR12 -1.41 дБ -20.07 дБ 2:33 10-L'Amour de MoyDR15 -2.03 дБ -24.10 дБ 2:26 11-Ave Verum CorpusDR13 -3.26 дБ -20.40 дБ 4:14 12-Brave MarinDR13 -2.15 дБ -20.62 дБ 1:13 13-Ce Mois de MayDR13 -0.49 дБ -20.66 дБ 3:10 14-C'etait Mon CopainDR14 0.00 дБ -23.60 дБ 1:42 15-AlphabetDR13 -3.02 дБ -21.30 дБ 3:00 16-Dans les Prisons de NantesDR14 -2.94 дБ -21.76 дБ 3:53 17-Le Roy A Fait Battre TambourDR13 -0.02 дБ -21.04 дБ 2:56 18-Ave MariaDR15 -3.45 дБ -27.03 дБ 4:36 19-Mountain NightsDR13 -6.02 дБ -24.20 дБ 3:27 20-Go Yan Eubone--------------------------------------------------------------------------------
Количество треков: 20Реальные значения DR: DR14
Частота: 44100 ГцКаналов: 2Разрядность: 16Битрейт: 629 кбит/сКодек: FLAC================================================================================
[teatrix.ru].t10607.torrent 
Торрент: Зарегистрирован [ 2015-11-09 01:20 ] · 2D745CBC434062F8A93334D526CA44690793831F

Скачать .torrent

Скачать

15 KB

Статус: проверено
Скачан: 0 раз
Размер: 346 MB
terms.php



Быстрый ответ

Имя:

      
Для отправки сообщений необходимо включить JavaScript
Показать сообщения:    

Текущее время: 08-Дек 01:17

Часовой пояс: UTC + 3


Вы можете начинать темы
Вы можете отвечать на сообщения
Вы не можете редактировать свои сообщения
Вы не можете удалять свои сообщения
Вы не можете голосовать в опросах
Вы не можете прикреплять файлы к сообщениям
Вы можете скачивать файлы