Дочери счастья / Cory szczescia / A Szerencse lanyai (Марта Мессарош / Marta Meszaros) [1999, Польша, Венгрия, Драма, HDTV 1080i]


 

[Цитировать]

Дочери счастья / Cory szczescia / A Szerencse lanyai- Страна: Польша, Венгрия
Студия: Agencja Produkcji Filmowej, Budapest Filmstúdió, Manfred Durniok Filmproduktion, Studio Filmowe Dom, Telewizja Polska (TVP), Wytwórnia Filmów Dokumentalnych i Fabularnych (WFDiF)
Жанр: драма
Год выпуска: 1999
Продолжительность: 01:54:06-Перевод: Отсутствует
Cубтитры: нет
Оригинальная аудиодорожка: русский, польский-Режиссер: Марта Мессарош / Marta Meszaros
В ролях: Ольга Дроздова, Ян Новицкий, Masza Petraniuk, Оляф Любашенко, Igor Czerniewicz, Эва Телега, Эва Далковска, Анна Мария Вилчиньска, Беата Фудалей, Катажина Баргеловска...-
Описание: Наташа, учительница английского языка из российского городка, поддается уговорам подруги Веры и решает уехать вместе со своей старшей дочерью Машей в Польшу. Женщины доезжают до Варшавы, где на вокзале их ждет знакомый Веры, поляк Янек. Усталые, но счастливые они добираются до пансионата, в котором работает также знакомая Веры. На следующий день все начинают торговать привезённым товаром на стадионе. Но Вера каждый день куда-то уходит, это беспокоит Наташу…-Доп. информация: Фильм преимущественно на русском языке. Польская речь не переведена, однако, её количество в фильме очень невелико.-Семпл: http://sendfile.su/1165495-Тип релиза: HDTV 1080i
Контейнер: TS
Видео: 1920x1080 (16:9), 25.000 fps, AVC, ~6091 Kbps, 0.117 bits/pixel
Аудио 1: Русский, 48.0 KHz, AC3, 2 ch, 192 kbps
Аудио 2: Polish, 48.0 KHz, AC3, 2 ch, 192 kbps

MediaInfo

GeneralID : 1 (0x1)Complete name : Cory szczescia 1999 TVP HD 1080i.tsFormat : MPEG-TSFile size : 5.43 GiBDuration : 1h 54mnOverall bit rate mode : VariableOverall bit rate : 6 815 KbpsMaximum Overall bit rate : 35.5 Mbps
VideoID : 4113 (0x1011)Menu ID : 1 (0x1)Format : AVCFormat/Info : Advanced Video CodecFormat profile : High@L4Format settings, CABAC : YesFormat settings, ReFrames : 4 framesFormat settings, GOP : M=4, N=32Codec ID : 27Duration : 1h 54mnBit rate : 6 091 KbpsWidth : 1 920 pixelsHeight : 1 080 pixelsDisplay aspect ratio : 16:9Frame rate : 25.000 fpsColor space : YUVChroma subsampling : 4:2:0Bit depth : 8 bitsScan type : InterlacedScan order : Top Field FirstBits/(Pixel*Frame) : 0.117Stream size : 4.85 GiB (89%)Color range : LimitedColor primaries : BT.709Transfer characteristics : BT.709Matrix coefficients : BT.709
Audio #1ID : 4352 (0x1100)Menu ID : 1 (0x1)Format : AC-3Format/Info : Audio Coding 3Mode extension : CM (complete main)Format settings, Endianness : BigCodec ID : 129Duration : 1h 54mnBit rate mode : ConstantBit rate : 192 KbpsChannel(s) : 2 channelsChannel positions : Front: L RSampling rate : 48.0 KHzCompression mode : LossyStream size : 157 MiB (3%)Language : Russian
Audio #2ID : 4353 (0x1101)Menu ID : 1 (0x1)Format : AC-3Format/Info : Audio Coding 3Mode extension : CM (complete main)Format settings, Endianness : BigCodec ID : 129Duration : 1h 54mnBit rate mode : ConstantBit rate : 192 KbpsChannel(s) : 2 channelsChannel positions : Front: L RSampling rate : 48.0 KHzCompression mode : LossyStream size : 157 MiB (3%)Language : Polish



Показать сообщения:    

Текущее время: 06-Дек 11:14

Часовой пояс: UTC + 3


Вы не можете начинать темы
Вы не можете отвечать на сообщения
Вы не можете редактировать свои сообщения
Вы не можете удалять свои сообщения
Вы не можете голосовать в опросах
Вы не можете прикреплять файлы к сообщениям
Вы не можете скачивать файлы