Anton Webern - Im Sommerwind; Passacaglia; Beethoven - Piano Concerto No. 5; Symphony No. 1 (WDR Sinfonieorchester Koln, Jukka-Pekka Saraste, Rudolf Buchbinder) [2015, Classical / Orchestral, HDTV 720p]


 

[Цитировать]

Anton Webern - Im Sommerwind; Passacaglia
Ludwig van Beethoven - Konzert für Klavier und Orchester Nr. 5; Sinfonie Nr. 1

Rudolf Buchbinder • WDR Sinfonieorchester Köln • Jukka-Pekka Saraste

-
Год выпуска: 2015
Лейбл: WDR
Жанр: Classical / Orchestral
Продолжительность: 01:35:26
Режиссер: Thorsten Fricke
Исполнители:
Rudolf Buchbinder - klavier
Jukka-Pekka Saraste - leitung
WDR Sinfonieorchester Köln
Треклист:
Anton Webern
- Im Sommerwind. Idyll für großes Orchester (1904)
Ludwig van Beethoven
- Konzert für Klavier und Orchester Nr. 5 Es-Dur op. 73
- Sinfonie Nr. 1 C-Dur op. 21
Anton Webern
- Passacaglia op. 1 (1908)
Доп. информация:
Aus der Kölner Philharmonie, Juni 2015
Jukka-Pekka Saraste dirigiert Webern und Beethoven 3sat.de
Kölner Philharmonie Official Site
Jukka-Pekka Saraste Official Site
Jukka-Pekka Saraste from Wikipedia, the free encyclopedia
Rudolf Buchbinder Official Site
Rudolf Buchbinder from Wikipedia, the free encyclopedia
Качество видео: HDTV 720p
Контейнер: TS
Видео кодек: H.264
Аудио кодек: AC3
Видео поток: 12.2 Mbps, 1280*720 (16:9), at 50.000 fps, AVC (High@L4.0) (CABAC / 6 Ref Frames)
Аудио поток: German, 256 Kbps, 48.0 KHz, 2 channels, MPEG Audio (Version 1) (Layer 2)
Аудио 2: 192 Kbps, 48.0 KHz, 2 channels, MPEG Audio (Version 1) (Layer 2)
Аудио 3: German, 448 Kbps, 48.0 KHz, 16 bits, 2 channels, AC-3
Аудио 4: Multiple languages, 192 Kbps, 48.0 KHz, 2 channels, MPEG Audio (Version 1) (Layer 2)
Источник: Digital Satellite > SkyStar HD2 (TechniSat) > raw data to HDD > Cypheros TS-Doctor > Smart Cutter (cut) > ts

MediaInfo

GeneralID : 8900 (0x22C4)Complete name : C:\3sat HD_Webern, Beethoven (Jukka-Pekka Saraste, Rudolf Buchbinder) 2015.tsFormat : MPEG-TSFile size : 9.35 GiBDuration : 1h 35mnOverall bit rate mode : VariableOverall bit rate : 14.0 Mbps
VideoID : 6510 (0x196E)Menu ID : 11150 (0x2B8E)Format : AVCFormat/Info : Advanced Video CodecFormat profile : High@L4.0Format settings, CABAC : YesFormat settings, ReFrames : 6 framesCodec ID : 27Duration : 1h 35mnBit rate : 12.2 MbpsWidth : 1 280 pixelsHeight : 720 pixelsDisplay aspect ratio : 16:9Frame rate : 50.000 fpsColor space : YUVChroma subsampling : 4:2:0Bit depth : 8 bitsScan type : ProgressiveBits/(Pixel*Frame) : 0.266Stream size : 8.16 GiB (87%)Color primaries : BT.709Transfer characteristics : BT.709Matrix coefficients : BT.709
Audio #1ID : 6520 (0x1978)Menu ID : 11150 (0x2B8E)Format : MPEG AudioFormat version : Version 1Format profile : Layer 2Codec ID : 3Duration : 1h 35mnBit rate mode : ConstantBit rate : 256 KbpsChannel(s) : 2 channelsSampling rate : 48.0 KHzCompression mode : LossyDelay relative to video : -16msStream size : 175 MiB (2%)Language : German
Audio #2ID : 6521 (0x1979)Menu ID : 11150 (0x2B8E)Format : MPEG AudioFormat version : Version 1Format profile : Layer 2Codec ID : 3Duration : 1h 35mnBit rate mode : ConstantBit rate : 192 KbpsChannel(s) : 2 channelsSampling rate : 48.0 KHzCompression mode : LossyDelay relative to video : -16msStream size : 131 MiB (1%)
Audio #3ID : 6522 (0x197A)Menu ID : 11150 (0x2B8E)Format : AC-3Format/Info : Audio Coding 3Mode extension : CM (complete main)Format settings, Endianness : BigCodec ID : 6Duration : 1h 35mnBit rate mode : ConstantBit rate : 448 KbpsChannel(s) : 2 channelsChannel positions : Front: L RSampling rate : 48.0 KHzBit depth : 16 bitsCompression mode : LossyDelay relative to video : -10msStream size : 306 MiB (3%)Language : German
Audio #4ID : 6523 (0x197B)Menu ID : 11150 (0x2B8E)Format : MPEG AudioFormat version : Version 1Format profile : Layer 2Codec ID : 3Duration : 1h 35mnBit rate mode : ConstantBit rate : 192 KbpsChannel(s) : 2 channelsSampling rate : 48.0 KHzCompression mode : LossyDelay relative to video : -8msStream size : 131 MiB (1%)Language : Multiple languages
... info ...">

Скриншоты ... info ...


Jukka-Pekka Saraste dirigiert Webern und Beethoven
Kölner Philharmonie, Juni 2015
Mittelpunkt des Programms ist Ludwig van Beethovens grandioses Konzert für Klavier und Orchester Nr. 5 Es-Dur op. 73 mit Rudolf Buchbinder.
Der vielfach preisgekrönte Pianist Rudolf Buchbinder, regelmäßiger Gast bei den bedeutendsten Orchestern und Festivals der Welt ist gefeierter Beethoven-Interpret. Im Anschluss folgt Beethovens sinfonischer Erstling, die Sinfonie Nr. 1 C-Dur op. 21.
Das Orchester musiziert unter der Leitung seines Chefdirigenten Jukka-Pekka Saraste. Die beiden Kompositionen Beethovens werden umrahmt von zwei frühen Orchesterwerken von Anton Webern: dem sinfonischen Idyll "Im Sommerwind", das Webern 1904 nach einem Gedicht von Bruno Wille komponierte, und der 1908 uraufgeführten Passacaglia op. 1.
~ 3sat.de



Показать сообщения:    

Текущее время: 05-Дек 19:39

Часовой пояс: UTC + 3


Вы не можете начинать темы
Вы не можете отвечать на сообщения
Вы не можете редактировать свои сообщения
Вы не можете удалять свои сообщения
Вы не можете голосовать в опросах
Вы не можете прикреплять файлы к сообщениям
Вы не можете скачивать файлы