(Baroque opera) Lully - Phaeton / Люлли - Фаэтон (Veronique Gens, Jennifer Smith, Laurent Naouri, Paul Crook, Jean-Paul Fouchecourt / Les Musiciens du Louvre, Sagittarius Vocal Ensemble, Marc Minkowski) - 1994, FLAC (image+.cue) lossless


 

[Цитировать]

Lully - Phaeton / Люлли - Фаэтон

Жанр: Baroque opera
Страна-производитель диска: Made in Germany
Год издания диска: 1994
Издатель (лейбл): Erato Disques S.A./Radio France
Номер по каталогу: 4509-91737-2
Дата записи: 1993
Аудиокодек: FLAC
Тип рипа: image+.cue
Битрейт аудио: lossless
Продолжительность: 2 Hours 24 Mins.
Источник: релизер
сайт-источник/ник/другое: Петя и Волк (специально для меня)
Наличие сканов в содержимом раздачи: да (обложки и сканы дисков)
Треклист:

скрытый текст

CD1:

скрытый текст

1.Prologue: Ouverture
2.Prologue: Cherchons La Paix Dans Cet Asile
3.Prologue: Dans Cette Paisible Retraite
4.Prologue: Dans Ces Lieux, Tout Rit Sans Cesse
5.Prologue: Que Les Mortels Se Rejouissent
6.Prologue: Un Heros Qui Merite Une Gloire Immortelle
7.Prologue: Suivons Ce Heros, Suivez-Nous
8.Prologue: Air Pour Les Suivants De Saturne
9.Prologue: Plaisirs Venez Sans Crainte
10.Prologue: On A Vu Ce Heros Terrible Dans La Guerre
11.Prologue: Reprise De L'ouverture
12.Act 1: Scene 1: Heureuse Une Ame Indifferente
13.Act 1: Scene 2: Je Ne Vous Croyais Pas Dans Ce Lieu Solitaire
14.Act 1: Scene 3: Vous Passiez Sans Me Voir
15.Act 1: Scene 4: Vous Paraissez Chagrin, Mon Fils
16.Act 1: Scene 5: Heureux, Qui Peut Voir Du Rivage
17.Act 1: Scene 5: Prenez Soin Sur Ces Bords Des Troupeaux De Neptune
18.Act 1: Scene 6: Vous Avec Qui Le Sang Me Lie
19.Act 1: Scene 7: Que Protee Avec Nous Partage
20.Act 1: Scene 7: Le Plaisir Est Necessaire
21.Act 1: Scene 7: Vos Jeux Ont Des Appas, Je Les Quitte Avec Peine
22.Act 1: Scene 7: C'est Un Secret Qu'il Faut Qu'on Vous Arrache
23.Act 1: Scene 8: Le Sort De Phaлton Se Decouvre А Mes Yeux
24.Act 1: Scene 8: Reprise
25.Act 2: Scene 1: Protee En A Trop Dit, Je Fremis Du Danger
26.Act 2: Scene 2: Il Me Fuit, L'inconstant!
27.Act 2: Scene 3: Que L'incertitude Est Un Rigoureux Tourment
28.Act 2: Scene 4: Quel Malheur
29.Act 2: Scene 4: Que Mon Sort Serait Doux
CD2:

скрытый текст

1.Act 2: Scene 5: Roys Qui Pour Souverain Devez Me Reconnaitre
2.Act 2: Scene 5: Que De Tous Cotes On Entende Le Nom De Phaeton
3.Act 2: Scene 5: Chaconne
4.Act 2: Scene 5: Petit Air Pour Les Mesmes
5.Act 3. Scene 1: Ah Phaeton Est-Il Possible...
6.Act 3. Scene 1: Pour Regir L'univers Les Destins M'ont Fait Naitre
7.Act 3. Scene 2: Suivez-La, Ma Presence Irrite Ses Douleurs
8.Act 3. Scene 3: Songez-Vous Qu'isis Est Ma Mere?
9.Act 3. Scene 4: Marche
10.Act 3. Scene 4: Air Pour Les Mesmes
11.Act 3. Scene 4: O Vous Pour Qui L'amour Des Plus Beaux De Ses Noeuds
12.Act 3. Scene 4: Nous Reverons Votre Puissance
13.Act 3. Scene 4: Vous Qui Servez Isis
14.Act 3. Scene 5: Entree Des Furies
15.Act 3. Scene 6: Le Ciel Trouble Votre Bonheur
16.Act 3. Scene 6: Vous Etes Son Fils, Je Le Jure
17.Act 3. Scene 6: Ce Dieu Semble Approuver Le Sement Que Je Fais
18.Act 4. Scene 1: Sans La Dieu Qui Vous Eclaire
19.Act 4. Scene 1: C'est Par Vous, O Soleil, Que Le Ciel S'illumine
20.Act 4. Scene 1: Redoublez La Rejouissance
21.Act 4. Scene 1: Air
22.Act 4. Scene 1: Dans Ce Palais, Bravez L'envie
23.Act 4. Scene 2: Approchez, Phaeton, Que Rien Ne Vous Etonne
24.Act 4. Scene 2: C'est Toi Que J'en Atteste
25.Act 4. Scene 2: Tous Mes Tresors Vous Sont Ouverts
26.Act 4. Scene 2: Allez Repandre La Lumiere
27.Act 5. Scene 1: Assemblez-Vous, Habitans De Ces Lieux
28.Act 5. Scene 2: Dieu Qui Vous Declarez Mon Pere
29.Act 5. Scene 3: O Rigoureux Martyre
30.Act 5. Scene 3: Dieu! Epaphus!
31.Act 5. Scene 3: Helas, Une Chaоne Si Belle
32.Act 5. Scene 4: Que L'on Chante, Que Tout Reponde
33.Act 5. Scene 4: Bourree - Premier Air
34.Act 5. Scene 4: Ce Beau Jour Ne Permet Qu'а L'aurore
35.Act 5. Scene 5: Changer Ces Doux Concerts En Des Plaintes Funebres
36.Act 5. Scene 5: C'est Votre Secours Que J'implore
37.Act 5. Scene 5: Dieu Qui Lancez Le Tonnerre
Исполнители:

скрытый текст

Jean-Baptiste Lully
Phaëton, LWV 61
Written: by 1683; France
Performer: Laurent Naouri (Baritone)
Rachel Yakar (Soprano)
Jennifer Smith (Soprano)
Véronique Gens (Soprano)
Gérard Theruel (Baritone)
Jean-Paul Fouchécourt (Tenor),
Paul Crook (Tenor)
Philippe Huttenlocher (Baritone)
Jérôme Varnier ()
Virginie Pochon ()
Florence Couderc ()
Les Musiciens du Louvre, Sagittarius Vocal Ensemble
Conductor: Marc Minkowski
Date of Recording: 1993
Venue: Opéra de Lyon, Lyon, France

Лог создания рипа

CD1

скрытый текст

Exact Audio Copy V1.0 beta 3 from 29. August 2011
EAC extraction logfile from 8. November 2015, 22:21
Les Musiciens du Louvre, Marc Minkowski / Phaëton (CD1)
Used drive : HL-DT-STDVD+-RW GT80N Adapter: 0 ID: 0
Read mode : Secure
Utilize accurate stream : Yes
Defeat audio cache : Yes
Make use of C2 pointers : No
Read offset correction : 102
Overread into Lead-In and Lead-Out : No
Fill up missing offset samples with silence : Yes
Delete leading and trailing silent blocks : No
Null samples used in CRC calculations : Yes
Used interface : Native Win32 interface for Win NT & 2000
Used output format : User Defined Encoder
Selected bitrate : 1024 kBit/s
Quality : High
Add ID3 tag : No
Command line compressor : C:\Program Files (x86)\Exact Audio Copy\Flac\flac.exe
Additional command line options : -8 -V -T "ARTIST=%artist%" -T "TITLE=%title%" -T "ALBUM=%albumtitle%" -T "DATE=%year%" -T "TRACKNUMBER=%tracknr%" -T "GENRE=%genre%" -T "PERFORMER=%albuminterpret%" -T "COMPOSER=%composer%" %haslyrics%--tag-from-file=LYRICS="%lyricsfile%"%haslyrics% -T "ALBUMARTIST=%albumartist%" -T "DISCNUMBER=%cdnumber%" -T "TOTALDISCS=%totalcds%" -T "TOTALTRACKS=%numtracks%" -T "COMMENT=%comment%" %source% -o %dest%
TOC of the extracted CD
Track | Start | Length | Start sector | End sector
---------------------------------------------------------
1 | 0:00.00 | 3:16.60 | 0 | 14759
2 | 3:16.60 | 1:33.03 | 14760 | 21737
3 | 4:49.63 | 2:04.45 | 21738 | 31082
4 | 6:54.33 | 1:05.62 | 31083 | 36019
5 | 8:00.20 | 2:03.38 | 36020 | 45282
6 | 10:03.58 | 2:27.12 | 45283 | 56319
7 | 12:30.70 | 2:01.45 | 56320 | 65439
8 | 14:32.40 | 0:56.40 | 65440 | 69679
9 | 15:29.05 | 1:31.60 | 69680 | 76564
10 | 17:00.65 | 2:00.23 | 76565 | 85587
11 | 19:01.13 | 2:17.65 | 85588 | 95927
12 | 21:19.03 | 1:59.70 | 95928 | 104922
13 | 23:18.73 | 5:40.25 | 104923 | 130447
14 | 28:59.23 | 5:00.05 | 130448 | 152952
15 | 33:59.28 | 5:06.07 | 152953 | 175909
16 | 39:05.35 | 1:57.68 | 175910 | 184752
17 | 41:03.28 | 2:23.00 | 184753 | 195477
18 | 43:26.28 | 0:47.00 | 195478 | 199002
19 | 44:13.28 | 1:54.60 | 199003 | 207612
20 | 46:08.13 | 1:10.37 | 207613 | 212899
21 | 47:18.50 | 1:06.50 | 212900 | 217899
22 | 48:25.25 | 2:08.25 | 217900 | 227524
23 | 50:33.50 | 2:34.58 | 227525 | 239132
24 | 53:08.33 | 0:32.67 | 239133 | 241599
25 | 53:41.25 | 3:57.03 | 241600 | 259377
26 | 57:38.28 | 4:44.70 | 259378 | 280747
27 | 62:23.23 | 2:07.57 | 280748 | 290329
28 | 64:31.05 | 5:17.30 | 290330 | 314134
29 | 69:48.35 | 1:14.23 | 314135 | 319707
Range status and errors
Selected range
Filename C:\Jean-Baptiste Lully - Phaëton (1994) [FLAC]\CD1\Les Musiciens du Louvre, Marc Minkowski - Phaëton (CD1).wav
Peak level 99.8 %
Extraction speed 5.1 X
Range quality 100.0 %
Test CRC AD2C6FFE
Copy CRC AD2C6FFE
Copy OK
No errors occurred
AccurateRip summary
Track 1 accurately ripped (confidence 7) [F847B9FB] (AR v2)
Track 2 accurately ripped (confidence 7) [8CEE564A] (AR v2)
Track 3 accurately ripped (confidence 7) [BF023B3A] (AR v2)
Track 4 accurately ripped (confidence 7) [47118B5B] (AR v2)
Track 5 accurately ripped (confidence 7) [C48F83BC] (AR v2)
Track 6 accurately ripped (confidence 7) [38F241A0] (AR v2)
Track 7 accurately ripped (confidence 7) [56F6D194] (AR v2)
Track 8 accurately ripped (confidence 7) [D591C3A7] (AR v2)
Track 9 accurately ripped (confidence 7) [E0948041] (AR v2)
Track 10 accurately ripped (confidence 7) [D23B5C6D] (AR v2)
Track 11 accurately ripped (confidence 7) [0CECE086] (AR v2)
Track 12 accurately ripped (confidence 7) [03E9E6AB] (AR v2)
Track 13 accurately ripped (confidence 7) [E0C42F62] (AR v2)
Track 14 accurately ripped (confidence 7) [17E0E56A] (AR v2)
Track 15 accurately ripped (confidence 7) [4DF0227D] (AR v2)
Track 16 accurately ripped (confidence 7) [355871D8] (AR v2)
Track 17 accurately ripped (confidence 7) [FC3738A3] (AR v2)
Track 18 accurately ripped (confidence 7) [A092F354] (AR v2)
Track 19 accurately ripped (confidence 7) [1E18630F] (AR v2)
Track 20 accurately ripped (confidence 7) [71EB9997] (AR v2)
Track 21 accurately ripped (confidence 7) [81DC4216] (AR v2)
Track 22 accurately ripped (confidence 7) [26B844C9] (AR v2)
Track 23 accurately ripped (confidence 7) [0A0A2333] (AR v2)
Track 24 accurately ripped (confidence 7) [6A8CE8D9] (AR v2)
Track 25 accurately ripped (confidence 7) [530BCC18] (AR v2)
Track 26 accurately ripped (confidence 7) [548CD088] (AR v2)
Track 27 accurately ripped (confidence 7) [7379F70A] (AR v2)
Track 28 accurately ripped (confidence 7) [72E25878] (AR v2)
Track 29 accurately ripped (confidence 7) [0D83996E] (AR v2)
All tracks accurately ripped
End of status report
==== Log checksum 4C5806DFC8BA0F7E572CC4782F6B0E5E5C43DA66BABE89EF137396619B38A924 ====
CD2

скрытый текст

Exact Audio Copy V1.0 beta 3 from 29. August 2011
EAC extraction logfile from 8. November 2015, 23:23
Les Musiciens du Louvre, Marc Minkowski / Phaëton (CD2)
Used drive : HL-DT-STDVD+-RW GT80N Adapter: 0 ID: 0
Read mode : Secure
Utilize accurate stream : Yes
Defeat audio cache : Yes
Make use of C2 pointers : No
Read offset correction : 102
Overread into Lead-In and Lead-Out : No
Fill up missing offset samples with silence : Yes
Delete leading and trailing silent blocks : No
Null samples used in CRC calculations : Yes
Used interface : Native Win32 interface for Win NT & 2000
Used output format : User Defined Encoder
Selected bitrate : 1024 kBit/s
Quality : High
Add ID3 tag : No
Command line compressor : C:\Program Files (x86)\Exact Audio Copy\Flac\flac.exe
Additional command line options : -8 -V -T "ARTIST=%artist%" -T "TITLE=%title%" -T "ALBUM=%albumtitle%" -T "DATE=%year%" -T "TRACKNUMBER=%tracknr%" -T "GENRE=%genre%" -T "PERFORMER=%albuminterpret%" -T "COMPOSER=%composer%" %haslyrics%--tag-from-file=LYRICS="%lyricsfile%"%haslyrics% -T "ALBUMARTIST=%albumartist%" -T "DISCNUMBER=%cdnumber%" -T "TOTALDISCS=%totalcds%" -T "TOTALTRACKS=%numtracks%" -T "COMMENT=%comment%" %source% -o %dest%
TOC of the extracted CD
Track | Start | Length | Start sector | End sector
---------------------------------------------------------
1 | 0:00.00 | 1:56.28 | 0 | 8727
2 | 1:56.28 | 1:31.27 | 8728 | 15579
3 | 3:27.55 | 2:56.33 | 15580 | 28812
4 | 6:24.13 | 0:50.10 | 28813 | 32572
5 | 7:14.23 | 1:56.12 | 32573 | 41284
6 | 9:10.35 | 3:30.73 | 41285 | 57107
7 | 12:41.33 | 1:54.35 | 57108 | 65692
8 | 14:35.68 | 4:09.40 | 65693 | 84407
9 | 18:45.33 | 1:35.17 | 84408 | 91549
10 | 20:20.50 | 1:16.20 | 91550 | 97269
11 | 21:36.70 | 1:06.23 | 97270 | 102242
12 | 22:43.18 | 2:46.12 | 102243 | 114704
13 | 25:29.30 | 0:45.45 | 114705 | 118124
14 | 26:15.00 | 0:51.10 | 118125 | 121959
15 | 27:06.10 | 1:56.53 | 121960 | 130712
16 | 29:02.63 | 1:00.40 | 130713 | 135252
17 | 30:03.28 | 1:22.25 | 135253 | 141427
18 | 31:25.53 | 3:11.50 | 141428 | 155802
19 | 34:37.28 | 2:37.00 | 155803 | 167577
20 | 37:14.28 | 0:28.57 | 167578 | 169734
21 | 37:43.10 | 1:04.33 | 169735 | 174567
22 | 38:47.43 | 4:17.57 | 174568 | 193899
23 | 43:05.25 | 2:14.55 | 193900 | 204004
24 | 45:20.05 | 1:36.65 | 204005 | 211269
25 | 46:56.70 | 3:49.33 | 211270 | 228477
26 | 50:46.28 | 1:35.47 | 228478 | 235649
27 | 52:22.00 | 1:18.40 | 235650 | 241539
28 | 53:40.40 | 1:39.45 | 241540 | 249009
29 | 55:20.10 | 1:06.30 | 249010 | 253989
30 | 56:26.40 | 1:41.58 | 253990 | 261622
31 | 58:08.23 | 1:49.70 | 261623 | 269867
32 | 59:58.18 | 1:15.50 | 269868 | 275542
33 | 61:13.68 | 0:29.00 | 275543 | 277717
34 | 61:42.68 | 2:54.12 | 277718 | 290779
35 | 64:37.05 | 1:41.43 | 290780 | 298397
36 | 66:18.48 | 1:36.65 | 298398 | 305662
37 | 67:55.38 | 1:25.07 | 305663 | 312044
Range status and errors
Selected range
Filename C:\Jean-Baptiste Lully - Phaëton (1994) [FLAC]\CD2\Les Musiciens du Louvre, Marc Minkowski - Phaëton (CD2).wav
Peak level 99.3 %
Extraction speed 2.7 X
Range quality 99.9 %
Test CRC 98139E42
Copy CRC 98139E42
Copy OK
No errors occurred
AccurateRip summary
Track 1 cannot be verified as accurate (confidence 20) [52575184], AccurateRip returned [4667C114] (AR v2)
Track 2 cannot be verified as accurate (confidence 20) [732F6452], AccurateRip returned [F324067B] (AR v2)
Track 3 cannot be verified as accurate (confidence 20) [0BC40D1F], AccurateRip returned [BD74347E] (AR v2)
Track 4 cannot be verified as accurate (confidence 20) [ADD994AF], AccurateRip returned [A89542F7] (AR v2)
Track 5 cannot be verified as accurate (confidence 20) [E0F9521A], AccurateRip returned [4CD3D13E] (AR v2)
Track 6 cannot be verified as accurate (confidence 20) [F983706C], AccurateRip returned [FB513FBD] (AR v2)
Track 7 cannot be verified as accurate (confidence 20) [5962B359], AccurateRip returned [1F6414E2] (AR v2)
Track 8 cannot be verified as accurate (confidence 20) [FE395A63], AccurateRip returned [A27D4BDE] (AR v2)
Track 9 cannot be verified as accurate (confidence 20) [2F770086], AccurateRip returned [5223EEA0] (AR v2)
Track 10 cannot be verified as accurate (confidence 20) [09949B44], AccurateRip returned [02023399] (AR v2)
Track 11 cannot be verified as accurate (confidence 20) [5B507DB3], AccurateRip returned [9041A4AF] (AR v2)
Track 12 cannot be verified as accurate (confidence 20) [2553266C], AccurateRip returned [69BC532C] (AR v2)
Track 13 cannot be verified as accurate (confidence 20) [6A1E454B], AccurateRip returned [220D7B3C] (AR v2)
Track 14 cannot be verified as accurate (confidence 20) [8251D2D9], AccurateRip returned [FC424CBB] (AR v2)
Track 15 cannot be verified as accurate (confidence 20) [42642931], AccurateRip returned [D8B15DB2] (AR v2)
Track 16 cannot be verified as accurate (confidence 20) [EA2A23DD], AccurateRip returned [E1A3E211] (AR v2)
Track 17 cannot be verified as accurate (confidence 20) [438105C2], AccurateRip returned [DACCD26D] (AR v2)
Track 18 cannot be verified as accurate (confidence 20) [99C27D19], AccurateRip returned [FB4397CA] (AR v2)
Track 19 cannot be verified as accurate (confidence 20) [85AE57E0], AccurateRip returned [1A84BDE7] (AR v2)
Track 20 cannot be verified as accurate (confidence 20) [DCEC0F01], AccurateRip returned [1FFAC804] (AR v2)
Track 21 cannot be verified as accurate (confidence 20) [656246D2], AccurateRip returned [E2D8E501] (AR v2)
Track 22 cannot be verified as accurate (confidence 19) [B04D87B6], AccurateRip returned [31E65F01] (AR v2)
Track 23 cannot be verified as accurate (confidence 20) [8C277B91], AccurateRip returned [862AD34B] (AR v2)
Track 24 cannot be verified as accurate (confidence 20) [B729FEB5], AccurateRip returned [3DBCB4D4] (AR v2)
Track 25 cannot be verified as accurate (confidence 20) [C71FEC3E], AccurateRip returned [756DE2EA] (AR v2)
Track 26 cannot be verified as accurate (confidence 20) [137542D2], AccurateRip returned [982A1DEB] (AR v2)
Track 27 cannot be verified as accurate (confidence 20) [2B477649], AccurateRip returned [995D988C] (AR v2)
Track 28 cannot be verified as accurate (confidence 20) [44C4416C], AccurateRip returned [886C67F4] (AR v2)
Track 29 cannot be verified as accurate (confidence 20) [CF583DA7], AccurateRip returned [71514173] (AR v2)
Track 30 cannot be verified as accurate (confidence 20) [00052CD7], AccurateRip returned [2358CDAA] (AR v2)
Track 31 cannot be verified as accurate (confidence 19) [89AA2092], AccurateRip returned [326F72F4] (AR v2)
Track 32 cannot be verified as accurate (confidence 20) [F26DF9E9], AccurateRip returned [329BD3E2] (AR v2)
Track 33 cannot be verified as accurate (confidence 20) [FD35A64B], AccurateRip returned [684527AD] (AR v2)
Track 34 cannot be verified as accurate (confidence 20) [A35F7156], AccurateRip returned [972C33A9] (AR v2)
Track 35 cannot be verified as accurate (confidence 20) [E2CB0640], AccurateRip returned [6F9E7830] (AR v2)
Track 36 cannot be verified as accurate (confidence 20) [5F802765], AccurateRip returned [D30AA53A] (AR v2)
Track 37 cannot be verified as accurate (confidence 19) [E907BEF0], AccurateRip returned [5BF690BA] (AR v2)
No tracks could be verified as accurate
You may have a different pressing from the one(s) in the database
End of status report
==== Log checksum 42CDA9EFCDF5A2A2AA7A39E4E8E21EE074EE9FCFD8C96C6F8902102757F24F5D ====

Содержание индексной карты (.CUE)

CD1

скрытый текст

REM GENRE Opera
REM DATE 1994
REM DISCID 7E10A61D
REM COMMENT "ExactAudioCopy v1.0b3"
PERFORMER "Les Musiciens du Louvre, Marc Minkowski"
TITLE "Phaeton (CD1)"
FILE "Les Musiciens du Louvre, Marc Minkowski - Phaeton (CD1).flac" WAVE
TRACK 01 AUDIO
TITLE "Prologue: Ouverture - Le Theatre represente les Jardins un Palais de la Deess..."
PERFORMER "Les Musiciens du Louvre, Marc Minkowski"
INDEX 01 00:00:00
TRACK 02 AUDIO
TITLE "Prologue: Troupe d'Astree 'Cherchons la paix dans cet asile'"
PERFORMER "Les Musiciens du Louvre, Marc Minkowski"
INDEX 01 03:16:60
TRACK 03 AUDIO
TITLE "Prologue: Ritournelle , Astree 'Dans cette paisible Retraite,Tout rit, tout r..."
PERFORMER "Les Musiciens du Louvre, Marc Minkowski"
INDEX 01 04:49:63
TRACK 04 AUDIO
TITLE "Prologue: Troupe d'Astree 'Dans ces lieux, tout rit sans cesse'"
PERFORMER "Les Musiciens du Louvre, Marc Minkowski"
INDEX 01 06:54:33
TRACK 05 AUDIO
TITLE "Prologue: Choeur 'Que les mortels se rejouissent'"
PERFORMER "Les Musiciens du Louvre, Marc Minkowski"
INDEX 01 08:00:20
TRACK 06 AUDIO
TITLE "Prologue: Saturne 'Un heros qui merite une gloire immortelle'"
PERFORMER "Les Musiciens du Louvre, Marc Minkowski"
INDEX 01 10:03:58
TRACK 07 AUDIO
TITLE "Prologue: Astree, Choeur 'Suivons ce Heros, suivez-nous'"
PERFORMER "Les Musiciens du Louvre, Marc Minkowski"
INDEX 01 12:30:70
TRACK 08 AUDIO
TITLE "Prologue: Air pour les suivants de Saturne"
PERFORMER "Les Musiciens du Louvre, Marc Minkowski"
INDEX 01 14:32:40
TRACK 09 AUDIO
TITLE "Prologue: Bourree, Choeur 'Plaisirs venez sans crainte'"
PERFORMER "Les Musiciens du Louvre, Marc Minkowski"
INDEX 01 15:29:05
TRACK 10 AUDIO
TITLE "Prologue: Saturne, Astree 'On a vu ce Heros terrible dans la Guerre'"
PERFORMER "Les Musiciens du Louvre, Marc Minkowski"
INDEX 01 17:00:65
TRACK 11 AUDIO
TITLE "Prologue: Reprise de l'ouverture"
PERFORMER "Les Musiciens du Louvre, Marc Minkowski"
INDEX 01 19:01:13
TRACK 12 AUDIO
TITLE "Acte I, Scene 1: Lybie 'Heureuse une ame indifferente, Le tranquille bonheur ..."
PERFORMER "Les Musiciens du Louvre, Marc Minkowski"
INDEX 00 21:17:10
INDEX 01 21:19:03
TRACK 13 AUDIO
TITLE "Acte I, Scene 2: Theone, Lybie 'Je ne vous croyois pas dans ce lieu solitaire'"
PERFORMER "Les Musiciens du Louvre, Marc Minkowski"
INDEX 01 23:18:73
TRACK 14 AUDIO
TITLE "Acte I, Scene 3: Theone, Phaeton 'Vous passez sans me voir ! craignez-vous ma..."
PERFORMER "Les Musiciens du Louvre, Marc Minkowski"
INDEX 01 28:59:23
TRACK 15 AUDIO
TITLE "Acte I, Scene 4: Clymene, Phaeton 'Vous paroissez chagrin, mon Fils...'"
PERFORMER "Les Musiciens du Louvre, Marc Minkowski"
INDEX 01 33:59:28
TRACK 16 AUDIO
TITLE "Acte I, Scene 5: Protee et sa suite 'Heureux, qui peut voir du Rivage'"
PERFORMER "Les Musiciens du Louvre, Marc Minkowski"
INDEX 01 39:05:35
TRACK 17 AUDIO
TITLE "Acte I, Scene 5: Protee 'Prenez soin sur ces bords des troupeaux de Neptune'"
PERFORMER "Les Musiciens du Louvre, Marc Minkowski"
INDEX 01 41:03:28
TRACK 18 AUDIO
TITLE "Acte I, Scene 6: Clymene, Protee 'Vous avec qui le sang me lie, Triton, secon..."
PERFORMER "Les Musiciens du Louvre, Marc Minkowski"
INDEX 01 43:26:28
TRACK 19 AUDIO
TITLE "Acte I, Scene 7: Triton, Protee 'Que Protee avec nous partage, La douceur de ..."
PERFORMER "Les Musiciens du Louvre, Marc Minkowski"
INDEX 01 44:13:28
TRACK 20 AUDIO
TITLE "Acte I, Scene 7: Rondeau - Triton 'Le plaisir est necessaire, La Sagesse aust..."
PERFORMER "Les Musiciens du Louvre, Marc Minkowski"
INDEX 01 46:08:13
TRACK 21 AUDIO
TITLE "Acte I, Scene 7: Triton, Protee 'Vos yeux ont des appas, je les quitte avec p..."
PERFORMER "Les Musiciens du Louvre, Marc Minkowski"
INDEX 01 47:18:50
TRACK 22 AUDIO
TITLE "Acte I, Scene 7: Triton, Clymene 'C'est un secret qu'il faut qu'on vous arrache'"
PERFORMER "Les Musiciens du Louvre, Marc Minkowski"
INDEX 01 48:25:25
TRACK 23 AUDIO
TITLE "Acte I, Scene 8: Protee 'Le sort de Phaeton se decouvre a mes yeux'"
PERFORMER "Les Musiciens du Louvre, Marc Minkowski"
INDEX 01 50:33:50
TRACK 24 AUDIO
TITLE "Acte I, Scene 8: Reprise"
PERFORMER "Les Musiciens du Louvre, Marc Minkowski"
INDEX 01 53:08:33
TRACK 25 AUDIO
TITLE "Acte II, Scene 1: Clymene, Pheton 'Protee en a trop dit, je fremis du danger'"
PERFORMER "Les Musiciens du Louvre, Marc Minkowski"
INDEX 01 53:41:25
TRACK 26 AUDIO
TITLE "Acte II, Scene 2: Theone 'Il me fuit, l'inconstant! Il m'oste tout espoir'"
PERFORMER "Les Musiciens du Louvre, Marc Minkowski"
INDEX 01 57:38:28
TRACK 27 AUDIO
TITLE "Acte II, Scene 3: Lybie, Theone 'Que l'incertitude est un rigoreux tourment !'"
PERFORMER "Les Musiciens du Louvre, Marc Minkowski"
INDEX 01 62:23:23
TRACK 28 AUDIO
TITLE "Acte II, Scene 4: Epaphus, Libye 'Quel Malheur'"
PERFORMER "Les Musiciens du Louvre, Marc Minkowski"
INDEX 01 64:31:05
TRACK 29 AUDIO
TITLE "Acte II, Scene 4: Epaphys, Libye 'Que mon sort seroit doux, si je vivois pour..."
PERFORMER "Les Musiciens du Louvre, Marc Minkowski"
INDEX 01 69:48:35
CD2

скрытый текст

REM GENRE Opera
REM DATE 1994
REM DISCID 38104025
REM COMMENT "ExactAudioCopy v1.0b3"
PERFORMER "Les Musiciens du Louvre, Marc Minkowski"
TITLE "Phaeton (CD2)"
FILE "Les Musiciens du Louvre, Marc Minkowski - Phaeton (CD2).flac" WAVE
TRACK 01 AUDIO
TITLE "Acte II, Scene 5: Libye, Merops, Clymene, Phaeton 'Roys qui pour Souverain de..."
PERFORMER "Les Musiciens du Louvre, Marc Minkowski"
INDEX 01 00:00:00
TRACK 02 AUDIO
TITLE "Acte II, Scene 5: Merops, Choeur 'Que de tous cote on entende le nom de Phaeton'"
PERFORMER "Les Musiciens du Louvre, Marc Minkowski"
INDEX 01 01:56:28
TRACK 03 AUDIO
TITLE "Acte II, Scene 5: Chaconne"
PERFORMER "Les Musiciens du Louvre, Marc Minkowski"
INDEX 01 03:27:55
TRACK 04 AUDIO
TITLE "Acte II, Scene 5: Petit Air Pour Les Mesmes"
PERFORMER "Les Musiciens du Louvre, Marc Minkowski"
INDEX 01 06:24:13
TRACK 05 AUDIO
TITLE "Acte III, Scene 1: Theone, Phaeton 'Ah Phaeton est-il possible...'"
PERFORMER "Les Musiciens du Louvre, Marc Minkowski"
INDEX 00 07:09:03
INDEX 01 07:14:23
TRACK 06 AUDIO
TITLE "Acte III, Scene 1: Phaeton, Theone 'Pour regir l'Univers, les Destins m'ont f..."
PERFORMER "Les Musiciens du Louvre, Marc Minkowski"
INDEX 01 09:10:35
TRACK 07 AUDIO
TITLE "Acte III, Scene 2: Phaeton 'Suivez-la, ma presence irrite ses douleurs'"
PERFORMER "Les Musiciens du Louvre, Marc Minkowski"
INDEX 01 12:41:33
TRACK 08 AUDIO
TITLE "Acte III, Scene 3: Epaphus, Phaeton 'Songez-vous qu'Isis est ma Mere?'"
PERFORMER "Les Musiciens du Louvre, Marc Minkowski"
INDEX 01 14:35:68
TRACK 09 AUDIO
TITLE "Acte III, Scene 4: Marche"
PERFORMER "Les Musiciens du Louvre, Marc Minkowski"
INDEX 01 18:45:33
TRACK 10 AUDIO
TITLE "Acte III, Scene 4: Air pour les mesmes"
PERFORMER "Les Musiciens du Louvre, Marc Minkowski"
INDEX 01 20:20:50
TRACK 11 AUDIO
TITLE "Acte III, Scene 4: Merops ''O vous pour qui l'Amour des plus beaux de ses noe..."
PERFORMER "Les Musiciens du Louvre, Marc Minkowski"
INDEX 01 21:36:70
TRACK 12 AUDIO
TITLE "Acte III, Scene 4: Clymene, Merops 'Nous reverrons votre puissance'"
PERFORMER "Les Musiciens du Louvre, Marc Minkowski"
INDEX 01 22:43:18
TRACK 13 AUDIO
TITLE "Acte III, Scene 4: Phaeton, Merops, Epaphasus ''Vous qui servez Isis...'"
PERFORMER "Les Musiciens du Louvre, Marc Minkowski"
INDEX 01 25:29:30
TRACK 14 AUDIO
TITLE "Acte III, Scene 5: Entree Des Furies"
PERFORMER "Les Musiciens du Louvre, Marc Minkowski"
INDEX 01 26:15:00
TRACK 15 AUDIO
TITLE "Acte III, Scene 6: Clymene, Phaeton 'Le Ciel trouble votre bonheur, un peril ..."
PERFORMER "Les Musiciens du Louvre, Marc Minkowski"
INDEX 01 27:06:10
TRACK 16 AUDIO
TITLE "Acte III, Scene 6: Clymene 'Vous etes son Fils, je le jure'"
PERFORMER "Les Musiciens du Louvre, Marc Minkowski"
INDEX 01 29:02:63
TRACK 17 AUDIO
TITLE "Acte III, Scene 6: Clymene, Phaeton 'Ce Dieu semble aprouver le serment que j..."
PERFORMER "Les Musiciens du Louvre, Marc Minkowski"
INDEX 01 30:03:28
TRACK 18 AUDIO
TITLE "Acte IV, Scene 1: Choeur, Une Heure 'Sans le Dieu qui vous eclaire, tout lang..."
PERFORMER "Les Musiciens du Louvre, Marc Minkowski"
INDEX 00 31:24:28
INDEX 01 31:25:53
TRACK 19 AUDIO
TITLE "Acte IV, Scene 1: 'L'Automne 'C'est par vous, o Soleil, que le Ciel s'illumine'"
PERFORMER "Les Musiciens du Louvre, Marc Minkowski"
INDEX 01 34:37:28
TRACK 20 AUDIO
TITLE "Acte IV, Scene 1: Le Soleil 'Redoublez la rejouissance, que vous mefaites voir'"
PERFORMER "Les Musiciens du Louvre, Marc Minkowski"
INDEX 01 37:14:28
TRACK 21 AUDIO
TITLE "Acte IV, Scene 1: Air"
PERFORMER "Les Musiciens du Louvre, Marc Minkowski"
INDEX 01 37:43:10
TRACK 22 AUDIO
TITLE "Acte IV, Scene 1: Air, Choeur 'Dans ce Palais, bravez l'Envie, Dans ce Palais..."
PERFORMER "Les Musiciens du Louvre, Marc Minkowski"
INDEX 01 38:47:43
TRACK 23 AUDIO
TITLE "Acte IV, Scene 2: Le Soleil, Phaeton 'Approchez, Phaeton, que rien ne vous et..."
PERFORMER "Les Musiciens du Louvre, Marc Minkowski"
INDEX 01 43:05:25
TRACK 24 AUDIO
TITLE "Acte IV, Scene 2: Le Soleil 'C'est toi que j'en atteste, fleuve noir et funeste'"
PERFORMER "Les Musiciens du Louvre, Marc Minkowski"
INDEX 01 45:20:05
TRACK 25 AUDIO
TITLE "Acte IV, Scene 2: Le Soleil, Phaeton 'Tous mes Tresors vous sont ouverts'"
PERFORMER "Les Musiciens du Louvre, Marc Minkowski"
INDEX 01 46:56:70
TRACK 26 AUDIO
TITLE "Acte IV, Scene 2: Choeur 'Allez repandre la lumiere'"
PERFORMER "Les Musiciens du Louvre, Marc Minkowski"
INDEX 01 50:46:28
TRACK 27 AUDIO
TITLE "Acte V, Scene 1: 'Clymene 'Assemblez-vous, Habitants de ces lieux'"
PERFORMER "Les Musiciens du Louvre, Marc Minkowski"
INDEX 00 52:19:28
INDEX 01 52:22:00
TRACK 28 AUDIO
TITLE "Acte V, Scene 2: Epaphus, Phaeton 'Dieu qui vous declarez mon Pere'"
PERFORMER "Les Musiciens du Louvre, Marc Minkowski"
INDEX 01 53:40:40
TRACK 29 AUDIO
TITLE "Acte V, Scene 3: Libye 'O rigoureux martyre, de n'oser decouvrir de mortelles..."
PERFORMER "Les Musiciens du Louvre, Marc Minkowski"
INDEX 01 55:20:10
TRACK 30 AUDIO
TITLE "Acte V, Scene 3: Libye, Epaphus 'Dieu! Epaphus!'"
PERFORMER "Les Musiciens du Louvre, Marc Minkowski"
INDEX 01 56:26:40
TRACK 31 AUDIO
TITLE "Acte V, Scene 3: Epaphus, Libye 'Helas, une chaine si belle, devoit etres ete..."
PERFORMER "Les Musiciens du Louvre, Marc Minkowski"
INDEX 01 58:08:23
TRACK 32 AUDIO
TITLE "Acte V, Scene 4: Clymene, Merops, Choeur 'Que l'on chante, que tout reponde'"
PERFORMER "Les Musiciens du Louvre, Marc Minkowski"
INDEX 01 59:58:18
TRACK 33 AUDIO
TITLE "Acte V, Scene 4: Bourree - Premier Air"
PERFORMER "Les Musiciens du Louvre, Marc Minkowski"
INDEX 01 61:13:68
TRACK 34 AUDIO
TITLE "Acte V, Scene 4: Deuxieme Air - Une Bergere 'Ce beau jour ne permet qu'a l'Au..."
PERFORMER "Les Musiciens du Louvre, Marc Minkowski"
INDEX 01 61:42:68
TRACK 35 AUDIO
TITLE "Acte V, Scene 5: Clymene, Theone, Choeur 'Changer ces doux concerts en des pl..."
PERFORMER "Les Musiciens du Louvre, Marc Minkowski"
INDEX 01 64:37:05
TRACK 36 AUDIO
TITLE "Acte V, Scene 5: La Deesse de la Terre 'C'est votre secours que j'implore'"
PERFORMER "Les Musiciens du Louvre, Marc Minkowski"
INDEX 01 66:18:48
TRACK 37 AUDIO
TITLE "Acte V, Scene 5: Choeur, Jupiter 'Dieu qui lancez le Tonnerre, hastez-vous de..."
PERFORMER "Les Musiciens du Louvre, Marc Minkowski"
INDEX 01 67:55:38



Показать сообщения:    

Текущее время: 11-Дек 16:54

Часовой пояс: UTC + 3


Вы не можете начинать темы
Вы не можете отвечать на сообщения
Вы не можете редактировать свои сообщения
Вы не можете удалять свои сообщения
Вы не можете голосовать в опросах
Вы не можете прикреплять файлы к сообщениям
Вы не можете скачивать файлы