(Opera) Georges Bizet - Les Pecheurs de perles / Жорж Бизе - Искатели жемчуга [Highlights] (Jesus Etcheverry; Renee Doria, Alain Vanzo, Robert Massard, Jacques Scellier), 1961 - Studio / 1997, FLAC (tracks+.cue), lossless


 

[Цитировать]

Georges Bizet - Les Pêcheurs de perles / Жорж Бизе - Искатели жемчуга (Jésus Etcheverry; Renée Doria, Alain Vanzo, Robert Massard, Jacques Scellier)
Жанр: Opera
Страна-производитель диска: Франция
Год издания диска: 1997
Издатель (лейбл): Orphee
Дата записи: 1961
Аудиокодек: FLAC
Тип рипа: tracks+.cue
Битрейт аудио: lossless
Продолжительность: 47:14
Источник: релизер (EL HUMILDE CAMPESINO) (afina tus oidos)
Исполнители:
Leila - Renée Doria,
Nadir - Alain Vanzo,
Zurga - Robert Massard,
Nourabad - Jacques Scellier.
Conductor - Jésus Etcheverry,
Orchestre Symphonique.

Лог создания рипа

Exact Audio Copy V1.0 beta 3 from 29. August 2011
EAC extraction logfile from 8. November 2015, 18:38
Artista desconocido / Título desconocido
Used drive : HL-DT-STDVDRAM GH24NSC0 Adapter: 3 ID: 0
Read mode : SecureUtilize accurate stream : YesDefeat audio cache : YesMake use of C2 pointers : No
Read offset correction : 6Overread into Lead-In and Lead-Out : NoFill up missing offset samples with silence : YesDelete leading and trailing silent blocks : NoNull samples used in CRC calculations : YesUsed interface : Native Win32 interface for Win NT & 2000Gap handling : Appended to previous track
Used output format : User Defined EncoderSelected bitrate : 768 kBit/sQuality : HighAdd ID3 tag : NoCommand line compressor : C:\Program Files (x86)\Exact Audio Copy\FLAC\FLAC.EXEAdditional command line options : -8 -V -T "ARTIST=%artist%" -T "TITLE=%title%" -T "ALBUM=%albumtitle%" -T "DATE=%year%" -T "TRACKNUMBER=%tracknr%" -T "GENRE=%genre%" -T "PERFORMER=%albuminterpret%" -T "COMPOSER=%composer%" %haslyrics%--tag-from-file=LYRICS="%lyricsfile%"%haslyrics% -T "ALBUMARTIST=%albumartist%" -T "DISCNUMBER=%cdnumber%" -T "TOTALDISCS=%totalcds%" -T "TOTALTRACKS=%numtracks%" -T "COMMENT=%comment%" %source% -o %dest%
TOC of the extracted CD
Track | Start | Length | Start sector | End sector --------------------------------------------------------- 1 | 0:00.00 | 2:07.62 | 0 | 9586 2 | 2:07.62 | 6:58.14 | 9587 | 40950 3 | 9:06.01 | 2:02.32 | 40951 | 50132 4 | 11:08.33 | 1:23.09 | 50133 | 56366 5 | 12:31.42 | 3:42.43 | 56367 | 73059 6 | 16:14.10 | 5:32.13 | 73060 | 97972 7 | 21:46.23 | 6:26.39 | 97973 | 126961 8 | 28:12.62 | 9:09.07 | 126962 | 168143 9 | 37:21.69 | 5:58.46 | 168144 | 195039 10 | 43:20.40 | 8:45.01 | 195040 | 234415 11 | 52:05.41 | 1:20.21 | 234416 | 240436
Track 1
Filename f:\Users\Guillermo\Desktop\EAC convertidos\01 Pista01.wav
Pre-gap length 0:00:02.00
Peak level 87.5 % Extraction speed 1.4 X Track quality 100.0 % Test CRC CA5FA9D8 Copy CRC CA5FA9D8 Copy OK
Track 2
Filename f:\Users\Guillermo\Desktop\EAC convertidos\02 Pista02.wav
Peak level 97.4 % Extraction speed 2.0 X Track quality 100.0 % Test CRC 01B01B5C Copy CRC 01B01B5C Copy OK
Track 3
Filename f:\Users\Guillermo\Desktop\EAC convertidos\03 Pista03.wav
Peak level 97.6 % Extraction speed 1.6 X Track quality 100.0 % Test CRC 2DAA1A8E Copy CRC 2DAA1A8E Copy OK
Track 4
Filename f:\Users\Guillermo\Desktop\EAC convertidos\04 Pista04.wav
Peak level 98.1 % Extraction speed 1.5 X Track quality 100.0 % Test CRC 0C8FE6A5 Copy CRC 0C8FE6A5 Copy OK
Track 5
Filename f:\Users\Guillermo\Desktop\EAC convertidos\05 Pista05.wav
Peak level 80.8 % Extraction speed 2.1 X Track quality 100.0 % Test CRC 591969C8 Copy CRC 591969C8 Copy OK
Track 6
Filename f:\Users\Guillermo\Desktop\EAC convertidos\06 Pista06.wav
Peak level 97.6 % Extraction speed 2.4 X Track quality 100.0 % Test CRC BD4E93D1 Copy CRC BD4E93D1 Copy OK
Track 7
Filename f:\Users\Guillermo\Desktop\EAC convertidos\07 Pista07.wav
Peak level 98.1 % Extraction speed 2.3 X Track quality 99.9 % Test CRC 3B28676A Copy CRC 3B28676A Copy OK
Track 8
Filename f:\Users\Guillermo\Desktop\EAC convertidos\08 Pista08.wav
Peak level 98.0 % Extraction speed 2.9 X Track quality 100.0 % Test CRC 0C7A311D Copy CRC 0C7A311D Copy OK
Track 9
Filename f:\Users\Guillermo\Desktop\EAC convertidos\09 Pista09.wav
Peak level 97.7 % Extraction speed 3.0 X Track quality 100.0 % Test CRC AFB6AC7D Copy CRC AFB6AC7D Copy OK
Track 10
Filename f:\Users\Guillermo\Desktop\EAC convertidos\10 Pista10.wav
Peak level 97.5 % Extraction speed 3.3 X Track quality 100.0 % Test CRC A4F64A59 Copy CRC A4F64A59 Copy OK
Track 11
Filename f:\Users\Guillermo\Desktop\EAC convertidos\11 Pista11.wav
Peak level 97.7 % Extraction speed 2.2 X Track quality 100.0 % Test CRC 7D1D203B Copy CRC 7D1D203B Copy OK
No errors occurred
End of status report
==== Log checksum 157C4DD7063ED3B01C68785A1DFF8A8F50346BE3AD087673831E84D9DF91B730 ====

Содержание индексной карты (.CUE)

REM DISCID 930C850BREM COMMENT "ExactAudioCopy v1.0b3"FILE "01 Pista01.wav" WAVE TRACK 01 AUDIO INDEX 01 00:00:00FILE "02 Pista02.wav" WAVE TRACK 02 AUDIO INDEX 01 00:00:00FILE "03 Pista03.wav" WAVE TRACK 03 AUDIO INDEX 01 00:00:00FILE "04 Pista04.wav" WAVE TRACK 04 AUDIO INDEX 01 00:00:00FILE "05 Pista05.wav" WAVE TRACK 05 AUDIO INDEX 01 00:00:00FILE "06 Pista06.wav" WAVE TRACK 06 AUDIO INDEX 01 00:00:00FILE "07 Pista07.wav" WAVE TRACK 07 AUDIO INDEX 01 00:00:00FILE "08 Pista08.wav" WAVE TRACK 08 AUDIO INDEX 01 00:00:00FILE "09 Pista09.wav" WAVE TRACK 09 AUDIO INDEX 01 00:00:00FILE "10 Pista10.wav" WAVE TRACK 10 AUDIO INDEX 01 00:00:00FILE "11 Pista11.wav" WAVE TRACK 11 AUDIO INDEX 01 00:00:00

Треклист

1. Prélude
Act I:
2. Récit: C'est Toi Qu'enfin Je Revois
3. Récit: Que Vois-Je?
4. Récit: A Cette Voix
5. Romance: Je Croix Encore Entendre
6. Air Et Chœurs: O Dieu Brahma
Act II:
7. Récit Et Cavatine: Me Voilà Seule Dans La Nuit
8. Chanson: De Mon Amie
Act III:
9. Récit Et Air: L'Orage S'Est Calmé
10. Récit: Qu'Ai-Je Vu? Duo: Je Frémis, Je Chancelle
11. Trio: O Lumière Sainte



Показать сообщения:    

Текущее время: 03-Дек 22:40

Часовой пояс: UTC + 3


Вы не можете начинать темы
Вы не можете отвечать на сообщения
Вы не можете редактировать свои сообщения
Вы не можете удалять свои сообщения
Вы не можете голосовать в опросах
Вы не можете прикреплять файлы к сообщениям
Вы не можете скачивать файлы