(Opera, Vocal) Juan Diego Florez - Great Tenor Arias (Operatic Scenes by Donizetti, Rossini, Verdi, Puccini, Halevy, Cimarosa, Gluck), Carlo Rizzi - 2004, FLAC (image+.cue), lossless


 

[Цитировать]

Juan Diego Flórez - Great Tenor Arias
Жанр: Opera, Vocal
Страна-производитель диска: Германия
Год издания диска: 2004
Издатель (лейбл): DECCA
Дата записи: 2003
Аудиокодек: FLAC
Тип рипа: image+.cue
Битрейт аудио: lossless
Продолжительность: 58:17
Источник: релизер (luckburz - with gratitudes)
Наличие сканов в содержимом раздачи: да
Исполнители:
Juan Diego Flórez, tenor.
Carlo Rizzi, conductor,
Orchestra Sinfonica e Coro di Milano Giuseppe Verdi.
Recorded at Auditorium di Milano, Milan, Italy, March 24, 2003 - March 30, 2003.

Лог создания рипа

Exact Audio Copy V1.0 beta 3 from 29. August 2011
EAC extraction logfile from 3. September 2014, 6:11
Juan Diego Flórez / Great Tenor Arias
Used drive : PIONEER BD-RW BDR-206 Adapter: 0 ID: 2
Read mode : SecureUtilize accurate stream : YesDefeat audio cache : YesMake use of C2 pointers : No
Read offset correction : 667Overread into Lead-In and Lead-Out : NoFill up missing offset samples with silence : YesDelete leading and trailing silent blocks : NoNull samples used in CRC calculations : YesUsed interface : Native Win32 interface for Win NT & 2000
Used output format : User Defined EncoderSelected bitrate : 1024 kBit/sQuality : HighAdd ID3 tag : YesCommand line compressor : C:\Program Files\FLAC\flac.exeAdditional command line options : -5 -T "Artist=%artist%" -T "Title=%title%" -T "Album=%albumtitle%" -T "Date=%year%" -T "Tracknumber=%tracknr%" -T "Genre=%genre%" %source% -o %dest%
TOC of the extracted CD
Track | Start | Length | Start sector | End sector --------------------------------------------------------- 1 | 0:00.00 | 4:37.70 | 0 | 20844 2 | 4:37.70 | 6:32.04 | 20845 | 50248 3 | 11:09.74 | 7:42.20 | 50249 | 84918 4 | 18:52.19 | 6:30.54 | 84919 | 114222 5 | 25:22.73 | 5:00.67 | 114223 | 136789 6 | 30:23.65 | 7:42.54 | 136790 | 171493 7 | 38:06.44 | 2:25.43 | 171494 | 182411 8 | 40:32.12 | 6:45.32 | 182412 | 212818 9 | 47:17.44 | 7:43.55 | 212819 | 247598 10 | 55:01.24 | 3:21.12 | 247599 | 262685
Range status and errors
Selected range
Filename F:\=== VINYL RIPS ===\=== EAC===\X FRESH RIP\Juan Diego Flórez - Great Tenor Arias.wav
Peak level 100.0 % Extraction speed 1.8 X Range quality 100.0 % Copy CRC 9EC5A546 Copy OK
No errors occurred
AccurateRip summary
Track 1 accurately ripped (confidence 13) [ED89DA24] (AR v2)Track 2 accurately ripped (confidence 13) [B4243C4D] (AR v2)Track 3 accurately ripped (confidence 13) [14999347] (AR v2)Track 4 accurately ripped (confidence 13) [9E4F2CA0] (AR v2)Track 5 accurately ripped (confidence 13) [6C939397] (AR v2)Track 6 accurately ripped (confidence 13) [5EE68D7F] (AR v2)Track 7 accurately ripped (confidence 13) [32245A50] (AR v2)Track 8 accurately ripped (confidence 13) [3D124DCF] (AR v2)Track 9 accurately ripped (confidence 13) [C9A12592] (AR v2)Track 10 accurately ripped (confidence 13) [A86647CF] (AR v2)
All tracks accurately ripped
End of status report
---- CUETools DB Plugin V2.1.3
[CTDB TOCID: 5Ya2FuLZrnm.T6G8vST3vz_UFWY-] found, Submit result: 5Ya2FuLZrnm.T6G8vST3vz_UFWY- has been confirmed[fdb795e3] (9/9) Accurately ripped
==== Log checksum 372405F65653A9378BFFBA0AEEF78E313CF39859B1BCF1C52E244CC3A37F0E87 ====

Содержание индексной карты (.CUE)

REM GENRE ClassicalREM DATE 2004REM DISCID 870DAE0AREM COMMENT "ExactAudioCopy v1.0b3"CATALOG 0028947561873PERFORMER "Juan Diego Flуrez"TITLE "Great Tenor Arias"FILE "Juan Diego Flуrez - Great Tenor Arias.flac" WAVE TRACK 01 AUDIO TITLE "Gluck - Orphйe et Euridice - J'ai perdu mon Euridice" PERFORMER "Juan Diego Flуrez" ISRC GBBBA0344110 INDEX 01 00:00:00 TRACK 02 AUDIO TITLE "Verdi - Un giorno di regno - Pietoso al lungo pianto alfin m'arride amore... ..." PERFORMER "Juan Diego Flуrez" ISRC GBBBA0344120 INDEX 00 04:33:46 INDEX 01 04:37:70 TRACK 03 AUDIO TITLE "Rossini - Semiramide - La speranza piщ soave giа quest'alma lusingava" PERFORMER "Juan Diego Flуrez" ISRC GBBBA0344130 INDEX 00 11:06:60 INDEX 01 11:09:74 TRACK 04 AUDIO TITLE "Donizetti - La figlia del reggimento - Eccomi finalmente... Feste? Pompe? Oma..." PERFORMER "Juan Diego Flуrez" ISRC GBBBA0344140 INDEX 00 18:50:21 INDEX 01 18:52:19 TRACK 05 AUDIO TITLE "Halйvy - La Juive - Loin de son amie vivre sans plaisirs" PERFORMER "Juan Diego Flуrez" ISRC GBBBA0344150 INDEX 00 25:20:11 INDEX 01 25:22:73 TRACK 06 AUDIO TITLE "Rossini - L'italiana in Algeri - Languir per una bella" PERFORMER "Juan Diego Flуrez" ISRC GBBBA0344160 INDEX 00 30:21:16 INDEX 01 30:23:65 TRACK 07 AUDIO TITLE "Verdi - Rigoletto - La donna и mobile" PERFORMER "Juan Diego Flуrez" ISRC GBBBA0344170 INDEX 00 38:04:36 INDEX 01 38:06:44 TRACK 08 AUDIO TITLE "Cimarosa - Il matrimonio segreto - Pria che spunti in ciel l'aurora" PERFORMER "Juan Diego Flуrez" ISRC GBBBA0344180 INDEX 00 40:28:45 INDEX 01 40:32:12 TRACK 09 AUDIO TITLE "Donizetti - Lucrezia Borgia - Com'и soave quest'ora di silenzio al mio dolent..." PERFORMER "Juan Diego Flуrez" ISRC GBBBA0344190 INDEX 00 47:14:68 INDEX 01 47:17:44 TRACK 10 AUDIO TITLE "Puccini - Gianni Schicchi - Avete torto!... Firenze и come un albero fiorrito" PERFORMER "Juan Diego Flуrez" ISRC GBBBA0344200 INDEX 00 54:58:16 INDEX 01 55:01:24

Треклист

1. Christoph Willibald Gluck - Orphée et Euridice: J'ai perdu mon Euridice 4:38
2. Giuseppe Verdi - Un giorno di regno: Pietoso al lungo pianto alfin m'arride amore... 6:32
3. Gioachino Rossini - Semiramide: La speranza più soave già quest'alma lusingava 7:42
4. Gaetano Donizetti - La figlia del reggimento: Eccomi finalmente... Feste? Pompe? Oma... 6:31
5. Fromental Halévy - La Juive: Loin de son amie vivre sans plaisirs 5:01
6. Gioachino Rossini - L'italiana in Algeri: Languir per una bella 7:43
7. Giuseppe Verdi - Rigoletto: La donna è mobile 2:26
8. Domenico Cimarosa - Il matrimonio segreto: Pria che spunti in ciel l'aurora 6:45
9. Gaetano Donizetti - Lucrezia Borgia: Com'è soave quest'ora di silenzio al mio dolent... 7:44
10. Giacomo Puccini - Gianni Schicchi: Avete torto!... Firenze è come un albero fiorrito 3:21



Показать сообщения:    

Текущее время: 04-Дек 06:48

Часовой пояс: UTC + 3


Вы не можете начинать темы
Вы не можете отвечать на сообщения
Вы не можете редактировать свои сообщения
Вы не можете удалять свои сообщения
Вы не можете голосовать в опросах
Вы не можете прикреплять файлы к сообщениям
Вы не можете скачивать файлы