(Opera, Vocal) Giuseppe di Stefano - Operatic Recital (Tenor Arias by Puccini, Giordano, Massenet, Bizet, Gounod), 1958, Franco Patane / 2004, FLAC (tracks+.cue), lossless


 

[Цитировать]

Giuseppe di Stefano - Operatic Recital
Жанр: Opera, Vocal
Страна-производитель диска: CША
Год издания диска: 2004
Издатель (лейбл): DECCA
Дата записи: 1958
Аудиокодек: FLAC
Тип рипа: tracks+.cue
Битрейт аудио: lossless
Продолжительность: 41:51
Источник: релизер (EL HUMILDE CAMPESINO) (afina tus oidos)
Исполнители:
Giuseppe di Stefano, tenor.
Franco Patane, Conductor,
Zurich Tonhalle Orchestra.
Recorded at Tonhalle, Zurich, Switzerland, November, 1958.

Лог создания рипа

Exact Audio Copy V1.0 beta 3 from 29. August 2011
EAC extraction logfile from 6. November 2015, 6:18
Giuseppe di Stefano / [Disc 3] Operatic Recital
Used drive : HL-DT-STDVDRAM GH24NSC0 Adapter: 3 ID: 0
Read mode : SecureUtilize accurate stream : YesDefeat audio cache : YesMake use of C2 pointers : No
Read offset correction : 6Overread into Lead-In and Lead-Out : NoFill up missing offset samples with silence : YesDelete leading and trailing silent blocks : NoNull samples used in CRC calculations : YesUsed interface : Native Win32 interface for Win NT & 2000Gap handling : Appended to previous track
Used output format : User Defined EncoderSelected bitrate : 768 kBit/sQuality : HighAdd ID3 tag : NoCommand line compressor : C:\Program Files (x86)\Exact Audio Copy\FLAC\FLAC.EXEAdditional command line options : -8 -V -T "ARTIST=%artist%" -T "TITLE=%title%" -T "ALBUM=%albumtitle%" -T "DATE=%year%" -T "TRACKNUMBER=%tracknr%" -T "GENRE=%genre%" -T "PERFORMER=%albuminterpret%" -T "COMPOSER=%composer%" %haslyrics%--tag-from-file=LYRICS="%lyricsfile%"%haslyrics% -T "ALBUMARTIST=%albumartist%" -T "DISCNUMBER=%cdnumber%" -T "TOTALDISCS=%totalcds%" -T "TOTALTRACKS=%numtracks%" -T "COMMENT=%comment%" %source% -o %dest%
TOC of the extracted CD
Track | Start | Length | Start sector | End sector --------------------------------------------------------- 1 | 0:00.00 | 5:58.00 | 0 | 26849 2 | 5:58.00 | 3:23.00 | 26850 | 42074 3 | 9:21.00 | 3:10.00 | 42075 | 56324 4 | 12:31.00 | 3:14.00 | 56325 | 70874 5 | 15:45.00 | 2:49.00 | 70875 | 83549 6 | 18:34.00 | 3:35.00 | 83550 | 99674 7 | 22:09.00 | 3:07.74 | 99675 | 113773 8 | 25:16.74 | 3:46.00 | 113774 | 130723 9 | 29:02.74 | 4:22.01 | 130724 | 150374 10 | 33:25.00 | 6:16.74 | 150375 | 178648 11 | 39:41.74 | 2:11.01 | 178649 | 188474
Track 1
Filename f:\Users\Guillermo\Desktop\EAC convertidos\01 Andrea Chénier- Colpito qui m'avete ... Un dì, all'azzurro spazio.wav
Pre-gap length 0:00:02.00
Peak level 85.5 % Extraction speed 1.6 X Track quality 100.0 % Test CRC 2109079E Copy CRC 2109079E Copy OK
Track 2
Filename f:\Users\Guillermo\Desktop\EAC convertidos\02 Andrea Chénier- Come un bel dì di maggio.wav
Pre-gap length 0:00:04.00
Peak level 84.1 % Extraction speed 1.4 X Track quality 99.8 % Test CRC 604AB381 Copy CRC 604AB381 Copy OK
Track 3
Filename f:\Users\Guillermo\Desktop\EAC convertidos\03 Tosca- Recondita armonia.wav
Pre-gap length 0:00:05.00
Peak level 83.3 % Extraction speed 1.7 X Track quality 100.0 % Test CRC A930BA55 Copy CRC A930BA55 Copy OK
Track 4
Filename f:\Users\Guillermo\Desktop\EAC convertidos\04 Tosca- E lucevan le stelle.wav
Pre-gap length 0:00:03.98
Peak level 79.5 % Extraction speed 1.8 X Track quality 100.0 % Test CRC 6BA23AA3 Copy CRC 6BA23AA3 Copy OK
Track 5
Filename f:\Users\Guillermo\Desktop\EAC convertidos\05 Turandot- Non piangere Liù.wav
Pre-gap length 0:00:03.00
Peak level 85.8 % Extraction speed 1.9 X Track quality 100.0 % Test CRC FD5FCDE0 Copy CRC FD5FCDE0 Copy OK
Track 6
Filename f:\Users\Guillermo\Desktop\EAC convertidos\06 Turandot- Nessun dorma.wav
Pre-gap length 0:00:04.00
Peak level 92.6 % Extraction speed 2.1 X Track quality 100.0 % Test CRC ED3E9A32 Copy CRC ED3E9A32 Copy OK
Track 7
Filename f:\Users\Guillermo\Desktop\EAC convertidos\07 Werther, lyric drama in 4 acts- Pourquoi me réveiller.wav
Pre-gap length 0:00:04.00
Peak level 99.2 % Extraction speed 1.7 X Track quality 99.8 % Test CRC B2A1E748 Copy CRC B2A1E748 Copy OK
Track 8
Filename f:\Users\Guillermo\Desktop\EAC convertidos\08 Manon, opera in 5 acts- Instant charmant ... En fermant les yeux.wav
Pre-gap length 0:00:03.97
Peak level 61.4 % Extraction speed 2.3 X Track quality 100.0 % Test CRC DCA23A08 Copy CRC DCA23A08 Copy OK
Track 9
Filename f:\Users\Guillermo\Desktop\EAC convertidos\09 Carmen, opéra-comique in 4 acts- La fleur que tu m'avais jetée.wav
Pre-gap length 0:00:03.98
Peak level 73.9 % Extraction speed 2.5 X Track quality 100.0 % Test CRC FAB85517 Copy CRC FAB85517 Copy OK
Track 10
Filename f:\Users\Guillermo\Desktop\EAC convertidos\10 Faust- Quel trouble inconnu me pénètre ... Salut! Demeure chaste et pure.wav
Pre-gap length 0:00:04.00
Peak level 75.0 % Extraction speed 2.4 X Track quality 99.9 % Test CRC 613C5907 Copy CRC 613C5907 Copy OK
Track 11
Filename f:\Users\Guillermo\Desktop\EAC convertidos\11 Les Pêcheurs de perles, opera in 3 acts- De mon amie.wav
Pre-gap length 0:00:03.98
Peak level 77.7 % Extraction speed 2.3 X Track quality 100.0 % Test CRC A11D3F3C Copy CRC A11D3F3C Copy OK
No errors occurred
End of status report
==== Log checksum 388F74DC9A7A7E0A434ECBE694530B185CA03F5AEFCD33FCDCB056F765D67FCB ====

Содержание индексной карты (.CUE)

REM GENRE VocalREM DATE 2004REM DISCID 8509D10BREM COMMENT "ExactAudioCopy v1.0b3"FILE "01 Andrea Chйnier- Colpito qui m'avete ... Un dм, all'azzurro spazio.wav" WAVE TRACK 01 AUDIO INDEX 01 00:00:00 TRACK 02 AUDIO INDEX 00 05:54:00FILE "02 Andrea Chйnier- Come un bel dм di maggio.wav" WAVE INDEX 01 00:00:00 TRACK 03 AUDIO INDEX 00 03:18:00FILE "03 Tosca- Recondita armonia.wav" WAVE INDEX 01 00:00:00 TRACK 04 AUDIO INDEX 00 03:06:01FILE "04 Tosca- E lucevan le stelle.wav" WAVE INDEX 01 00:00:00 TRACK 05 AUDIO INDEX 00 03:11:00FILE "05 Turandot- Non piangere Liщ.wav" WAVE INDEX 01 00:00:00 TRACK 06 AUDIO INDEX 00 02:45:00FILE "06 Turandot- Nessun dorma.wav" WAVE INDEX 01 00:00:00 TRACK 07 AUDIO INDEX 00 03:31:00FILE "07 Werther, lyric drama in 4 acts- Pourquoi me rйveiller.wav" WAVE INDEX 01 00:00:00 TRACK 08 AUDIO INDEX 00 03:04:01FILE "08 Manon, opera in 5 acts- Instant charmant ... En fermant les yeux.wav" WAVE INDEX 01 00:00:00 TRACK 09 AUDIO INDEX 00 03:42:01FILE "09 Carmen, opйra-comique in 4 acts- La fleur que tu m'avais jetйe.wav" WAVE INDEX 01 00:00:00 TRACK 10 AUDIO INDEX 00 04:18:01FILE "10 Faust- Quel trouble inconnu me pйnиtre ... Salut! Demeure chaste et pure.wav" WAVE INDEX 01 00:00:00 TRACK 11 AUDIO INDEX 00 06:13:00FILE "11 Les Pкcheurs de perles, opera in 3 acts- De mon amie.wav" WAVE INDEX 01 00:00:00

Треклист

Umberto Giordano - Andrea Chénier:
1. Colpito qui m'avete... Un dì, all'azzurro spazio
2. Come un bel dì di maggio
Giacomo Puccini:
Tosca:
3. Recondita armonia
4. E lucevan le stelle
Turandot:
5. Non piangere Liù
6. Nessun dorma
Jules Massenet:
7. Werther - Pourquoi me réveiller
8. Manon - Instant charmant ... En fermant les yeux
9. Georges Bizet - Carmen: La fleur que tu m'avais jetée
10. Charles Gounod - Faust: Quel trouble inconnu me pénètre ... Salut! Demeure chaste et pure
11. Georges Bizet - Les Pêcheurs de perles: De mon amie



Показать сообщения:    

Текущее время: 05-Дек 19:37

Часовой пояс: UTC + 3


Вы не можете начинать темы
Вы не можете отвечать на сообщения
Вы не можете редактировать свои сообщения
Вы не можете удалять свои сообщения
Вы не можете голосовать в опросах
Вы не можете прикреплять файлы к сообщениям
Вы не можете скачивать файлы