(Opera) Pietro Mascagni - Cavalleria Rusticana / Ruggero Leoncavallo - Pagliacci/ Масканьи-Сельская честь / Леонкавалло-Паяцы (Franco Ghione; Alberto Erede; Mario Del Monaco, Aldo Protti, Elena Nicolai, Clara Petrella),1953-Studio,FLAC(tracks+.cue)


 

[Цитировать]

Pietro Mascagni - Cavalleria Rusticana / Ruggero Leoncavallo - Pagliacci / Масканьи - Сельская честь / Леонкавалло - Паяцы (Franco Ghione; Alberto Erede; Mario Del Monaco, Aldo Protti, Elena Nicolai, Clara Petrella)
Жанр: Opera
Страна-производитель диска: Германия
Год издания диска: 2015
Издатель (лейбл): DECCA
Дата записи: 1953-1954
Аудиокодек: FLAC
Тип рипа: tracks+.cue
Битрейт аудио: lossless
Продолжительность: 143:25
Источник: релизер (EL HUMILDE CAMPESINO) (afina tus oidos)
Исполнители:
Pietro Mascagni - Cavalleria Rusticana:
Santuzza - Elena Nicolai,
Turiddu - Mario Del Monaco,
Alfio - Aldo Protti,
Lola - Laura Didier-Gambardella,
Lucia - Anna Maria Anelli.
Conductor - Franco Ghione,
Orchestra and Chorus of Teatro alla Scala di Milano.
Recorded on January 1954 at Teatro Alla Scala, Milan.
Ruggero Leoncavallo - Pagliacci:
Canio - Mario Del Monaco,
Nedda - Clara Petrella,
Tonio - Afro Poli,
Beppe - Piero De Palma,
Silvio - Aldo Protti.
Conductor - Alberto Erede,
Orchestra and Chorus of dell'Academia di Santa Cecilia di Roma.
Recorded on July 1953 at Santa Cecilia, Rome.

Лог создания рипаЛог создания рипа CD 1

Exact Audio Copy V1.0 beta 3 from 29. August 2011
EAC extraction logfile from 4. November 2015, 18:06
Artista desconocido / Título desconocido
Used drive : HL-DT-STDVDRAM GH24NSC0 Adapter: 3 ID: 0
Read mode : SecureUtilize accurate stream : YesDefeat audio cache : YesMake use of C2 pointers : No
Read offset correction : 6Overread into Lead-In and Lead-Out : NoFill up missing offset samples with silence : YesDelete leading and trailing silent blocks : NoNull samples used in CRC calculations : YesUsed interface : Native Win32 interface for Win NT & 2000Gap handling : Appended to previous track
Used output format : User Defined EncoderSelected bitrate : 768 kBit/sQuality : HighAdd ID3 tag : NoCommand line compressor : C:\Program Files (x86)\Exact Audio Copy\FLAC\FLAC.EXEAdditional command line options : -8 -V -T "ARTIST=%artist%" -T "TITLE=%title%" -T "ALBUM=%albumtitle%" -T "DATE=%year%" -T "TRACKNUMBER=%tracknr%" -T "GENRE=%genre%" -T "PERFORMER=%albuminterpret%" -T "COMPOSER=%composer%" %haslyrics%--tag-from-file=LYRICS="%lyricsfile%"%haslyrics% -T "ALBUMARTIST=%albumartist%" -T "DISCNUMBER=%cdnumber%" -T "TOTALDISCS=%totalcds%" -T "TOTALTRACKS=%numtracks%" -T "COMMENT=%comment%" %source% -o %dest%
TOC of the extracted CD
Track | Start | Length | Start sector | End sector --------------------------------------------------------- 1 | 0:00.00 | 2:25.12 | 0 | 10886 2 | 2:25.12 | 5:11.15 | 10887 | 34226 3 | 7:36.27 | 2:34.31 | 34227 | 45807 4 | 10:10.58 | 4:45.21 | 45808 | 67203 5 | 14:56.04 | 4:07.16 | 67204 | 85744 6 | 19:03.20 | 2:46.73 | 85745 | 98267 7 | 21:50.18 | 1:06.00 | 98268 | 103217 8 | 22:56.18 | 2:26.67 | 103218 | 114234 9 | 25:23.10 | 3:56.05 | 114235 | 131939 10 | 29:19.15 | 5:58.24 | 131940 | 158813 11 | 35:17.39 | 3:35.39 | 158814 | 174977 12 | 38:53.03 | 3:37.35 | 174978 | 191287 13 | 42:30.38 | 5:07.26 | 191288 | 214338 14 | 47:37.64 | 1:06.23 | 214339 | 219311 15 | 48:44.12 | 4:27.72 | 219312 | 239408 16 | 53:12.09 | 3:16.36 | 239409 | 254144 17 | 56:28.45 | 2:24.41 | 254145 | 264985 18 | 58:53.11 | 2:53.13 | 264986 | 277973 19 | 61:46.24 | 5:05.11 | 277974 | 300859 20 | 66:51.35 | 5:27.08 | 300860 | 325392
Track 1
Filename f:\Users\Guillermo\Desktop\EAC convertidos\01 Pista01.wav
Pre-gap length 0:00:02.00
Peak level 70.3 % Extraction speed 1.4 X Track quality 100.0 % Test CRC 7DC61E7F Copy CRC 7DC61E7F Copy OK
Track 2
Filename f:\Users\Guillermo\Desktop\EAC convertidos\02 Pista02.wav
Peak level 93.2 % Extraction speed 1.8 X Track quality 100.0 % Test CRC 7A5E39A5 Copy CRC 7A5E39A5 Copy OK
Track 3
Filename f:\Users\Guillermo\Desktop\EAC convertidos\03 Pista03.wav
Peak level 86.4 % Extraction speed 1.7 X Track quality 100.0 % Test CRC AD7CA8EE Copy CRC AD7CA8EE Copy OK
Track 4
Filename f:\Users\Guillermo\Desktop\EAC convertidos\04 Pista04.wav
Peak level 82.5 % Extraction speed 2.1 X Track quality 100.0 % Test CRC E9821618 Copy CRC E9821618 Copy OK
Track 5
Filename f:\Users\Guillermo\Desktop\EAC convertidos\05 Pista05.wav
Peak level 75.6 % Extraction speed 2.2 X Track quality 100.0 % Test CRC 0C6E9D70 Copy CRC 0C6E9D70 Copy OK
Track 6
Filename f:\Users\Guillermo\Desktop\EAC convertidos\06 Pista06.wav
Peak level 98.7 % Extraction speed 1.7 X Track quality 99.8 % Test CRC 9B39A6F1 Copy CRC 9B39A6F1 Copy OK
Track 7
Filename f:\Users\Guillermo\Desktop\EAC convertidos\07 Pista07.wav
Peak level 39.8 % Extraction speed 1.5 X Track quality 100.0 % Test CRC 04F70307 Copy CRC 04F70307 Copy OK
Track 8
Filename f:\Users\Guillermo\Desktop\EAC convertidos\08 Pista08.wav
Peak level 64.3 % Extraction speed 1.7 X Track quality 99.8 % Test CRC 5533203E Copy CRC 5533203E Copy OK
Track 9
Filename f:\Users\Guillermo\Desktop\EAC convertidos\09 Pista09.wav
Peak level 98.5 % Extraction speed 2.5 X Track quality 100.0 % Test CRC C7D9BE65 Copy CRC C7D9BE65 Copy OK
Track 10
Filename f:\Users\Guillermo\Desktop\EAC convertidos\10 Pista10.wav
Peak level 74.5 % Extraction speed 2.8 X Track quality 100.0 % Test CRC 028AF282 Copy CRC 028AF282 Copy OK
Track 11
Filename f:\Users\Guillermo\Desktop\EAC convertidos\11 Pista11.wav
Peak level 99.8 % Extraction speed 2.7 X Track quality 100.0 % Test CRC 26F393E6 Copy CRC 26F393E6 Copy OK
Track 12
Filename f:\Users\Guillermo\Desktop\EAC convertidos\12 Pista12.wav
Peak level 60.8 % Extraction speed 2.7 X Track quality 100.0 % Test CRC 186D8A30 Copy CRC 186D8A30 Copy OK
Track 13
Filename f:\Users\Guillermo\Desktop\EAC convertidos\13 Pista13.wav
Peak level 91.4 % Extraction speed 3.0 X Track quality 100.0 % Test CRC 97AE67B0 Copy CRC 97AE67B0 Copy OK
Track 14
Filename f:\Users\Guillermo\Desktop\EAC convertidos\14 Pista14.wav
Peak level 68.0 % Extraction speed 1.9 X Track quality 100.0 % Test CRC FD9747F3 Copy CRC FD9747F3 Copy OK
Track 15
Filename f:\Users\Guillermo\Desktop\EAC convertidos\15 Pista15.wav
Peak level 73.3 % Extraction speed 3.1 X Track quality 100.0 % Test CRC 21D5355D Copy CRC 21D5355D Copy OK
Track 16
Filename f:\Users\Guillermo\Desktop\EAC convertidos\16 Pista16.wav
Peak level 35.9 % Extraction speed 3.0 X Track quality 100.0 % Test CRC 07B4E680 Copy CRC 07B4E680 Copy OK
Track 17
Filename f:\Users\Guillermo\Desktop\EAC convertidos\17 Pista17.wav
Peak level 59.6 % Extraction speed 2.8 X Track quality 100.0 % Test CRC B7F5BAFF Copy CRC B7F5BAFF Copy OK
Track 18
Filename f:\Users\Guillermo\Desktop\EAC convertidos\18 Pista18.wav
Peak level 94.9 % Extraction speed 3.0 X Track quality 100.0 % Test CRC 3DDD063B Copy CRC 3DDD063B Copy OK
Track 19
Filename f:\Users\Guillermo\Desktop\EAC convertidos\19 Pista19.wav
Peak level 79.7 % Extraction speed 3.5 X Track quality 100.0 % Test CRC 0635E262 Copy CRC 0635E262 Copy OK
Track 20
Filename f:\Users\Guillermo\Desktop\EAC convertidos\20 Pista20.wav
Peak level 88.5 % Extraction speed 3.6 X Track quality 100.0 % Test CRC B6277486 Copy CRC B6277486 Copy OK
No errors occurred
End of status report
==== Log checksum ECF355BCC8A6197A75D13C0933551964165AD30F95A3344B413760393AF6C3DE ====
------------------------------------------------------------
Exact Audio Copy V1.0 beta 3 from 29. August 2011
EAC extraction logfile from 4. November 2015, 18:08
Artista desconocido / Título desconocido
Used drive : HL-DT-STDVDRAM GH24NSC0 Adapter: 3 ID: 0
Read mode : SecureUtilize accurate stream : YesDefeat audio cache : YesMake use of C2 pointers : Yes
Read offset correction : 6Overread into Lead-In and Lead-Out : NoFill up missing offset samples with silence : YesDelete leading and trailing silent blocks : YesNull samples used in CRC calculations : YesUsed interface : Native Win32 interface for Win NT & 2000Gap handling : Appended to previous track
Used output format : User Defined EncoderSelected bitrate : 768 kBit/sQuality : HighAdd ID3 tag : NoCommand line compressor : C:\Program Files (x86)\Exact Audio Copy\FLAC\FLAC.EXEAdditional command line options : -8 -V -T "ARTIST=%artist%" -T "TITLE=%title%" -T "ALBUM=%albumtitle%" -T "DATE=%year%" -T "TRACKNUMBER=%tracknr%" -T "GENRE=%genre%" -T "PERFORMER=%albuminterpret%" -T "COMPOSER=%composer%" %haslyrics%--tag-from-file=LYRICS="%lyricsfile%"%haslyrics% -T "ALBUMARTIST=%albumartist%" -T "DISCNUMBER=%cdnumber%" -T "TOTALDISCS=%totalcds%" -T "TOTALTRACKS=%numtracks%" -T "COMMENT=%comment%" %source% -o %dest%
TOC of the extracted CD
Track | Start | Length | Start sector | End sector --------------------------------------------------------- 1 | 0:00.00 | 2:45.66 | 0 | 12440 2 | 2:45.66 | 4:52.14 | 12441 | 34354 3 | 7:38.05 | 2:29.21 | 34355 | 45550 4 | 10:07.26 | 2:49.06 | 45551 | 58231 5 | 12:56.32 | 2:47.60 | 58232 | 70816 6 | 15:44.17 | 1:29.12 | 70817 | 77503 7 | 17:13.29 | 2:37.51 | 77504 | 89329 8 | 19:51.05 | 2:25.46 | 89330 | 100250 9 | 22:16.51 | 2:19.14 | 100251 | 110689 10 | 24:35.65 | 5:09.20 | 110690 | 133884 11 | 29:45.10 | 1:53.05 | 133885 | 142364 12 | 31:38.15 | 3:19.59 | 142365 | 157348 13 | 34:57.74 | 3:22.16 | 157349 | 172514 14 | 38:20.15 | 4:53.57 | 172515 | 194546 15 | 43:13.72 | 0:46.02 | 194547 | 197998 16 | 43:59.74 | 2:50.45 | 197999 | 210793 17 | 46:50.44 | 3:12.24 | 210794 | 225217 18 | 50:02.68 | 3:29.19 | 225218 | 240911 19 | 53:32.12 | 1:02.40 | 240912 | 245601 20 | 54:34.52 | 2:30.65 | 245602 | 256916 21 | 57:05.42 | 3:39.44 | 256917 | 273385 22 | 60:45.11 | 2:09.15 | 273386 | 283075 23 | 62:54.26 | 2:08.73 | 283076 | 292748 24 | 65:03.24 | 3:17.39 | 292749 | 307562 25 | 68:20.63 | 2:46.48 | 307563 | 320060
Track 1
Filename f:\Users\Guillermo\Desktop\EAC convertidos\01 Pista01.wav
Pre-gap length 0:00:02.00
Copy aborted
Track 2
Copy aborted
Track 3
Copy aborted
Track 4
Copy aborted
Track 5
Copy aborted
Track 6
Copy aborted
Track 7
Copy aborted
Track 8
Copy aborted
Track 9
Copy aborted
Track 10
Copy aborted
Track 11
Copy aborted
Track 12
Copy aborted
Track 13
Copy aborted
Track 14
Copy aborted
Track 15
Copy aborted
Track 16
Copy aborted
Track 17
Copy aborted
Track 18
Copy aborted
Track 19
Copy aborted
Track 20
Copy aborted
Track 21
Copy aborted
Track 22
Copy aborted
Track 23
Copy aborted
Track 24
Copy aborted
Track 25
Copy aborted
There were errors
End of status report
==== Log checksum 57201E2629C6EFCE850FAF6827930B0AD88AC618FB64319440F4CC8F9C2E4E1D ====

Лог создания рипа CD 2

Exact Audio Copy V1.0 beta 3 from 29. August 2011
EAC extraction logfile from 4. November 2015, 18:13
Artista desconocido / Título desconocido
Used drive : HL-DT-STDVDRAM GH24NSC0 Adapter: 3 ID: 0
Read mode : SecureUtilize accurate stream : YesDefeat audio cache : YesMake use of C2 pointers : No
Read offset correction : 6Overread into Lead-In and Lead-Out : NoFill up missing offset samples with silence : YesDelete leading and trailing silent blocks : NoNull samples used in CRC calculations : YesUsed interface : Native Win32 interface for Win NT & 2000Gap handling : Appended to previous track
Used output format : User Defined EncoderSelected bitrate : 768 kBit/sQuality : HighAdd ID3 tag : NoCommand line compressor : C:\Program Files (x86)\Exact Audio Copy\FLAC\FLAC.EXEAdditional command line options : -8 -V -T "ARTIST=%artist%" -T "TITLE=%title%" -T "ALBUM=%albumtitle%" -T "DATE=%year%" -T "TRACKNUMBER=%tracknr%" -T "GENRE=%genre%" -T "PERFORMER=%albuminterpret%" -T "COMPOSER=%composer%" %haslyrics%--tag-from-file=LYRICS="%lyricsfile%"%haslyrics% -T "ALBUMARTIST=%albumartist%" -T "DISCNUMBER=%cdnumber%" -T "TOTALDISCS=%totalcds%" -T "TOTALTRACKS=%numtracks%" -T "COMMENT=%comment%" %source% -o %dest%
TOC of the extracted CD
Track | Start | Length | Start sector | End sector --------------------------------------------------------- 1 | 0:00.00 | 2:45.66 | 0 | 12440 2 | 2:45.66 | 4:52.14 | 12441 | 34354 3 | 7:38.05 | 2:29.21 | 34355 | 45550 4 | 10:07.26 | 2:49.06 | 45551 | 58231 5 | 12:56.32 | 2:47.60 | 58232 | 70816 6 | 15:44.17 | 1:29.12 | 70817 | 77503 7 | 17:13.29 | 2:37.51 | 77504 | 89329 8 | 19:51.05 | 2:25.46 | 89330 | 100250 9 | 22:16.51 | 2:19.14 | 100251 | 110689 10 | 24:35.65 | 5:09.20 | 110690 | 133884 11 | 29:45.10 | 1:53.05 | 133885 | 142364 12 | 31:38.15 | 3:19.59 | 142365 | 157348 13 | 34:57.74 | 3:22.16 | 157349 | 172514 14 | 38:20.15 | 4:53.57 | 172515 | 194546 15 | 43:13.72 | 0:46.02 | 194547 | 197998 16 | 43:59.74 | 2:50.45 | 197999 | 210793 17 | 46:50.44 | 3:12.24 | 210794 | 225217 18 | 50:02.68 | 3:29.19 | 225218 | 240911 19 | 53:32.12 | 1:02.40 | 240912 | 245601 20 | 54:34.52 | 2:30.65 | 245602 | 256916 21 | 57:05.42 | 3:39.44 | 256917 | 273385 22 | 60:45.11 | 2:09.15 | 273386 | 283075 23 | 62:54.26 | 2:08.73 | 283076 | 292748 24 | 65:03.24 | 3:17.39 | 292749 | 307562 25 | 68:20.63 | 2:46.48 | 307563 | 320060
Track 1
Filename f:\Users\Guillermo\Desktop\EAC convertidos\01 Pista01.wav
Pre-gap length 0:00:02.00
Copy aborted
Track 2
Copy aborted
Track 3
Copy aborted
Track 4
Copy aborted
Track 5
Copy aborted
Track 6
Copy aborted
Track 7
Copy aborted
Track 8
Copy aborted
Track 9
Copy aborted
Track 10
Copy aborted
Track 11
Copy aborted
Track 12
Copy aborted
Track 13
Copy aborted
Track 14
Copy aborted
Track 15
Copy aborted
Track 16
Copy aborted
Track 17
Copy aborted
Track 18
Copy aborted
Track 19
Copy aborted
Track 20
Copy aborted
Track 21
Copy aborted
Track 22
Copy aborted
Track 23
Copy aborted
Track 24
Copy aborted
Track 25
Copy aborted
There were errors
End of status report
==== Log checksum 2EE2A2A84C64A673814FDD957A31F7896C39555FC678E502C13C14D8E3B29031 ====
------------------------------------------------------------
Exact Audio Copy V1.0 beta 3 from 29. August 2011
EAC extraction logfile from 4. November 2015, 19:18
Artista desconocido / Título desconocido
Used drive : HL-DT-STDVDRAM GH24NSC0 Adapter: 3 ID: 0
Read mode : SecureUtilize accurate stream : YesDefeat audio cache : YesMake use of C2 pointers : Yes
Read offset correction : 6Overread into Lead-In and Lead-Out : NoFill up missing offset samples with silence : YesDelete leading and trailing silent blocks : YesNull samples used in CRC calculations : YesUsed interface : Native Win32 interface for Win NT & 2000Gap handling : Appended to previous track
Used output format : User Defined EncoderSelected bitrate : 768 kBit/sQuality : HighAdd ID3 tag : NoCommand line compressor : C:\Program Files (x86)\Exact Audio Copy\FLAC\FLAC.EXEAdditional command line options : -8 -V -T "ARTIST=%artist%" -T "TITLE=%title%" -T "ALBUM=%albumtitle%" -T "DATE=%year%" -T "TRACKNUMBER=%tracknr%" -T "GENRE=%genre%" -T "PERFORMER=%albuminterpret%" -T "COMPOSER=%composer%" %haslyrics%--tag-from-file=LYRICS="%lyricsfile%"%haslyrics% -T "ALBUMARTIST=%albumartist%" -T "DISCNUMBER=%cdnumber%" -T "TOTALDISCS=%totalcds%" -T "TOTALTRACKS=%numtracks%" -T "COMMENT=%comment%" %source% -o %dest%
TOC of the extracted CD
Track | Start | Length | Start sector | End sector --------------------------------------------------------- 1 | 0:00.00 | 2:45.66 | 0 | 12440 2 | 2:45.66 | 4:52.14 | 12441 | 34354 3 | 7:38.05 | 2:29.21 | 34355 | 45550 4 | 10:07.26 | 2:49.06 | 45551 | 58231 5 | 12:56.32 | 2:47.60 | 58232 | 70816 6 | 15:44.17 | 1:29.12 | 70817 | 77503 7 | 17:13.29 | 2:37.51 | 77504 | 89329 8 | 19:51.05 | 2:25.46 | 89330 | 100250 9 | 22:16.51 | 2:19.14 | 100251 | 110689 10 | 24:35.65 | 5:09.20 | 110690 | 133884 11 | 29:45.10 | 1:53.05 | 133885 | 142364 12 | 31:38.15 | 3:19.59 | 142365 | 157348 13 | 34:57.74 | 3:22.16 | 157349 | 172514 14 | 38:20.15 | 4:53.57 | 172515 | 194546 15 | 43:13.72 | 0:46.02 | 194547 | 197998 16 | 43:59.74 | 2:50.45 | 197999 | 210793 17 | 46:50.44 | 3:12.24 | 210794 | 225217 18 | 50:02.68 | 3:29.19 | 225218 | 240911 19 | 53:32.12 | 1:02.40 | 240912 | 245601 20 | 54:34.52 | 2:30.65 | 245602 | 256916 21 | 57:05.42 | 3:39.44 | 256917 | 273385 22 | 60:45.11 | 2:09.15 | 273386 | 283075 23 | 62:54.26 | 2:08.73 | 283076 | 292748 24 | 65:03.24 | 3:17.39 | 292749 | 307562 25 | 68:20.63 | 2:46.48 | 307563 | 320060
Track 1
Filename f:\Users\Guillermo\Desktop\EAC convertidos\01 Pista01.wav
Pre-gap length 0:00:02.00
Peak level 61.0 % Extraction speed 1.5 X Track quality 100.0 % Test CRC 1F225D8F Copy CRC 1F225D8F Copy OK
Track 2
Filename f:\Users\Guillermo\Desktop\EAC convertidos\02 Pista02.wav
Peak level 71.6 % Extraction speed 1.8 X Track quality 100.0 % Test CRC 5C0C5D5F Copy CRC 5C0C5D5F Copy OK
Track 3
Filename f:\Users\Guillermo\Desktop\EAC convertidos\03 Pista03.wav
Peak level 88.4 % Extraction speed 1.7 X Track quality 100.0 % Test CRC DF198BEB Copy CRC DF198BEB Copy OK
Track 4
Filename f:\Users\Guillermo\Desktop\EAC convertidos\04 Pista04.wav
Peak level 68.6 % Extraction speed 1.9 X Track quality 100.0 % Test CRC C00E7682 Copy CRC C00E7682 Copy OK
Track 5
Filename f:\Users\Guillermo\Desktop\EAC convertidos\05 Pista05.wav
Peak level 66.9 % Extraction speed 1.9 X Track quality 100.0 % Test CRC BC95712C Copy CRC BC95712C Copy OK
Track 6
Filename f:\Users\Guillermo\Desktop\EAC convertidos\06 Pista06.wav
Peak level 61.0 % Extraction speed 1.6 X Track quality 100.0 % Test CRC 2A72B4EC Copy CRC 2A72B4EC Copy OK
Track 7
Filename f:\Users\Guillermo\Desktop\EAC convertidos\07 Pista07.wav
Peak level 63.0 % Extraction speed 2.0 X Track quality 100.0 % Test CRC 8C2767C6 Copy CRC 8C2767C6 Copy OK
Track 8
Filename f:\Users\Guillermo\Desktop\EAC convertidos\08 Pista08.wav
Peak level 65.6 % Extraction speed 1.6 X Track quality 99.8 % Test CRC 0CBDB2E1 Copy CRC 0CBDB2E1 Copy OK
Track 9
Filename f:\Users\Guillermo\Desktop\EAC convertidos\09 Pista09.wav
Peak level 67.8 % Extraction speed 2.1 X Track quality 100.0 % Test CRC D5A4150F Copy CRC D5A4150F Copy OK
Track 10
Filename f:\Users\Guillermo\Desktop\EAC convertidos\10 Pista10.wav
Peak level 92.3 % Extraction speed 2.6 X Track quality 100.0 % Test CRC 673363D4 Copy CRC 673363D4 Copy OK
Track 11
Filename f:\Users\Guillermo\Desktop\EAC convertidos\11 Pista11.wav
Peak level 69.5 % Extraction speed 2.1 X Track quality 100.0 % Test CRC 29A792EC Copy CRC 29A792EC Copy OK
Track 12
Filename f:\Users\Guillermo\Desktop\EAC convertidos\12 Pista12.wav
Peak level 71.3 % Extraction speed 2.1 X Track quality 99.8 % Test CRC E4A9FAB0 Copy CRC E4A9FAB0 Copy OK
Track 13
Filename f:\Users\Guillermo\Desktop\EAC convertidos\13 Pista13.wav
Peak level 63.9 % Extraction speed 2.7 X Track quality 100.0 % Test CRC 293B6E86 Copy CRC 293B6E86 Copy OK
Track 14
Filename f:\Users\Guillermo\Desktop\EAC convertidos\14 Pista14.wav
Peak level 99.5 % Extraction speed 3.0 X Track quality 100.0 % Test CRC 21331008 Copy CRC 21331008 Copy OK
Track 15
Filename f:\Users\Guillermo\Desktop\EAC convertidos\15 Pista15.wav
Peak level 68.0 % Extraction speed 1.6 X Track quality 100.0 % Test CRC 8DA1EBE8 Copy CRC 8DA1EBE8 Copy OK
Track 16
Filename f:\Users\Guillermo\Desktop\EAC convertidos\16 Pista16.wav
Peak level 70.4 % Extraction speed 2.7 X Track quality 100.0 % Test CRC 75B5E64E Copy CRC 75B5E64E Copy OK
Track 17
Filename f:\Users\Guillermo\Desktop\EAC convertidos\17 Pista17.wav
Peak level 59.3 % Extraction speed 2.9 X Track quality 100.0 % Test CRC 59EDEAF0 Copy CRC 59EDEAF0 Copy OK
Track 18
Filename f:\Users\Guillermo\Desktop\EAC convertidos\18 Pista18.wav
Peak level 98.3 % Extraction speed 3.0 X Track quality 100.0 % Test CRC 5F83C5B6 Copy CRC 5F83C5B6 Copy OK
Track 19
Filename f:\Users\Guillermo\Desktop\EAC convertidos\19 Pista19.wav
Peak level 42.4 % Extraction speed 2.1 X Track quality 100.0 % Test CRC 6BB7DACD Copy CRC 6BB7DACD Copy OK
Track 20
Filename f:\Users\Guillermo\Desktop\EAC convertidos\20 Pista20.wav
Peak level 57.6 % Extraction speed 2.9 X Track quality 100.0 % Test CRC E0A2056C Copy CRC E0A2056C Copy OK
Track 21
Filename f:\Users\Guillermo\Desktop\EAC convertidos\21 Pista21.wav
Peak level 59.8 % Extraction speed 3.2 X Track quality 100.0 % Test CRC 20AC0061 Copy CRC 20AC0061 Copy OK
Track 22
Filename f:\Users\Guillermo\Desktop\EAC convertidos\22 Pista22.wav
Peak level 81.2 % Extraction speed 2.8 X Track quality 100.0 % Test CRC E3681F8F Copy CRC E3681F8F Copy OK
Track 23
Filename f:\Users\Guillermo\Desktop\EAC convertidos\23 Pista23.wav
Peak level 61.7 % Extraction speed 2.9 X Track quality 100.0 % Test CRC 12D932B8 Copy CRC 12D932B8 Copy OK
Track 24
Filename f:\Users\Guillermo\Desktop\EAC convertidos\24 Pista24.wav
Peak level 82.1 % Extraction speed 3.3 X Track quality 100.0 % Test CRC 0F94F8AE Copy CRC 0F94F8AE Copy OK
Track 25
Filename f:\Users\Guillermo\Desktop\EAC convertidos\25 Pista25.wav
Peak level 89.2 % Extraction speed 2.5 X Track quality 99.8 % Test CRC 7EBB9B6D Copy CRC 7EBB9B6D Copy OK
No errors occurred
End of status report
==== Log checksum 03BFAFBF16842523A375D9E073CE591B1B752C52201370B3E9E378A52C3AD78A ====

Содержание индексной карты (.CUE)Содержание индексной карты (.CUE) CD 1

REM DISCID 6D10AB19REM COMMENT "ExactAudioCopy v1.0b3"FILE "01 Pista01.wav" WAVE TRACK 01 AUDIO FLAGS DCP INDEX 01 00:00:00FILE "02 Pista02.wav" WAVE TRACK 02 AUDIO FLAGS DCP INDEX 01 00:00:00FILE "03 Pista03.wav" WAVE TRACK 03 AUDIO FLAGS DCP INDEX 01 00:00:00FILE "04 Pista04.wav" WAVE TRACK 04 AUDIO FLAGS DCP INDEX 01 00:00:00FILE "05 Pista05.wav" WAVE TRACK 05 AUDIO FLAGS DCP INDEX 01 00:00:00FILE "06 Pista06.wav" WAVE TRACK 06 AUDIO FLAGS DCP INDEX 01 00:00:00FILE "07 Pista07.wav" WAVE TRACK 07 AUDIO FLAGS DCP INDEX 01 00:00:00FILE "08 Pista08.wav" WAVE TRACK 08 AUDIO FLAGS DCP INDEX 01 00:00:00FILE "09 Pista09.wav" WAVE TRACK 09 AUDIO FLAGS DCP INDEX 01 00:00:00FILE "10 Pista10.wav" WAVE TRACK 10 AUDIO FLAGS DCP INDEX 01 00:00:00FILE "11 Pista11.wav" WAVE TRACK 11 AUDIO FLAGS DCP INDEX 01 00:00:00FILE "12 Pista12.wav" WAVE TRACK 12 AUDIO FLAGS DCP INDEX 01 00:00:00FILE "13 Pista13.wav" WAVE TRACK 13 AUDIO FLAGS DCP INDEX 01 00:00:00FILE "14 Pista14.wav" WAVE TRACK 14 AUDIO FLAGS DCP INDEX 01 00:00:00FILE "15 Pista15.wav" WAVE TRACK 15 AUDIO FLAGS DCP INDEX 01 00:00:00FILE "16 Pista16.wav" WAVE TRACK 16 AUDIO FLAGS DCP INDEX 01 00:00:00FILE "17 Pista17.wav" WAVE TRACK 17 AUDIO FLAGS DCP INDEX 01 00:00:00FILE "18 Pista18.wav" WAVE TRACK 18 AUDIO FLAGS DCP INDEX 01 00:00:00FILE "19 Pista19.wav" WAVE TRACK 19 AUDIO FLAGS DCP INDEX 01 00:00:00FILE "20 Pista20.wav" WAVE TRACK 20 AUDIO FLAGS DCP INDEX 01 00:00:00FILE "21 Pista21.wav" WAVE TRACK 21 AUDIO FLAGS DCP INDEX 01 00:00:00FILE "22 Pista22.wav" WAVE TRACK 22 AUDIO FLAGS DCP INDEX 01 00:00:00FILE "23 Pista23.wav" WAVE TRACK 23 AUDIO FLAGS DCP INDEX 01 00:00:00FILE "24 Pista24.wav" WAVE TRACK 24 AUDIO FLAGS DCP INDEX 01 00:00:00FILE "25 Pista25.wav" WAVE TRACK 25 AUDIO FLAGS DCP INDEX 01 00:00:00

Содержание индексной карты (.CUE) CD 2

REM DISCID 6D10AB19REM COMMENT "ExactAudioCopy v1.0b3"FILE "01 Pista01.wav" WAVE TRACK 01 AUDIO FLAGS DCP INDEX 01 00:00:00FILE "02 Pista02.wav" WAVE TRACK 02 AUDIO FLAGS DCP INDEX 01 00:00:00FILE "03 Pista03.wav" WAVE TRACK 03 AUDIO FLAGS DCP INDEX 01 00:00:00FILE "04 Pista04.wav" WAVE TRACK 04 AUDIO FLAGS DCP INDEX 01 00:00:00FILE "05 Pista05.wav" WAVE TRACK 05 AUDIO FLAGS DCP INDEX 01 00:00:00FILE "06 Pista06.wav" WAVE TRACK 06 AUDIO FLAGS DCP INDEX 01 00:00:00FILE "07 Pista07.wav" WAVE TRACK 07 AUDIO FLAGS DCP INDEX 01 00:00:00FILE "08 Pista08.wav" WAVE TRACK 08 AUDIO FLAGS DCP INDEX 01 00:00:00FILE "09 Pista09.wav" WAVE TRACK 09 AUDIO FLAGS DCP INDEX 01 00:00:00FILE "10 Pista10.wav" WAVE TRACK 10 AUDIO FLAGS DCP INDEX 01 00:00:00FILE "11 Pista11.wav" WAVE TRACK 11 AUDIO FLAGS DCP INDEX 01 00:00:00FILE "12 Pista12.wav" WAVE TRACK 12 AUDIO FLAGS DCP INDEX 01 00:00:00FILE "13 Pista13.wav" WAVE TRACK 13 AUDIO FLAGS DCP INDEX 01 00:00:00FILE "14 Pista14.wav" WAVE TRACK 14 AUDIO FLAGS DCP INDEX 01 00:00:00FILE "15 Pista15.wav" WAVE TRACK 15 AUDIO FLAGS DCP INDEX 01 00:00:00FILE "16 Pista16.wav" WAVE TRACK 16 AUDIO FLAGS DCP INDEX 01 00:00:00FILE "17 Pista17.wav" WAVE TRACK 17 AUDIO FLAGS DCP INDEX 01 00:00:00FILE "18 Pista18.wav" WAVE TRACK 18 AUDIO FLAGS DCP INDEX 01 00:00:00FILE "19 Pista19.wav" WAVE TRACK 19 AUDIO FLAGS DCP INDEX 01 00:00:00FILE "20 Pista20.wav" WAVE TRACK 20 AUDIO FLAGS DCP INDEX 01 00:00:00FILE "21 Pista21.wav" WAVE TRACK 21 AUDIO FLAGS DCP INDEX 01 00:00:00FILE "22 Pista22.wav" WAVE TRACK 22 AUDIO FLAGS DCP INDEX 01 00:00:00FILE "23 Pista23.wav" WAVE TRACK 23 AUDIO FLAGS DCP INDEX 01 00:00:00FILE "24 Pista24.wav" WAVE TRACK 24 AUDIO FLAGS DCP INDEX 01 00:00:00FILE "25 Pista25.wav" WAVE TRACK 25 AUDIO FLAGS DCP INDEX 01 00:00:00

Треклист

Pietro Mascagni - Cavalleria Rusticana:
1. Preludio
2. O Loha ch'ai di latti la cammisa (Siciliana)
3. Introduzione
4. Gli aranci olezzano
5. Dite. Mamma Lucia
6. Il cavallo scalpita
7. Beato voi, compar Alfio
8. Regina coeli
9. Inneggiamo
10. Voi lo sapete, o mamma
11. Tu qui, Santuzza
12. Fior di giaggiolo
13. No, no, Turiddu
14. Ah! lo vedi, che hai tu detto?
15. Oh! il Signore vi manda, compar Alfio!
16. Turridu mi tolse l'onore
17. Intermezzo
18. A casa, a casa, amici
19. Viva il vino spumeggiante
20. A voi tutti, salute
21. Mamma, quel vino e generoso
Ruggero Leoncavallo - Pagliacci:
1. Preludio
2. Prologue: Si puo
Act I:
3. Eh!..Son qua! Son qua!
4. Un grande spettacolo a ventitre ore
5. Un tal gioco, credetemi
6. I zampognari! I zampognari!
7. Don, Din, Don, Din
8. Qual fiamma avea nel guardo
9. Stridono lassu, liberamente
10. Sei la! Credea che te ne fossi andato... So ben che lo scemo, contorto son io
11. Nedda!... Silvio! A quest’ora che imprudenza!
12. Decidi il mio destin
13. E allor perche, di’, tu m’hai stregato
14. Cammina adagio e li sorprenderai
15. Recitar! Mentre preso dal delirio
16. Vesti la giubba
17. Intermezzo
Act II:
18. Ohe! Ohe! Presto
19. Pagliaccio, mio marito
20. Ah! Columbina, il tenero
21. E dessa! Dei, come e bella!
22. Arlecchin!... Colombina!
23. Nome di Dio
24. No, Pagliaccio non son
25. Suvvia



Показать сообщения:    

Текущее время: 04-Дек 11:07

Часовой пояс: UTC + 3


Вы не можете начинать темы
Вы не можете отвечать на сообщения
Вы не можете редактировать свои сообщения
Вы не можете удалять свои сообщения
Вы не можете голосовать в опросах
Вы не можете прикреплять файлы к сообщениям
Вы не можете скачивать файлы