(Classical opera) Antonio Salieri - Les Danaides [2CD's] (Kirsten Blaise / Chor und Orchester der Ludwigsburger Schlossfestspiele, Michael Hofstetter) - 2007, FLAC (tracks+.cue) lossless


 

[Цитировать]

Salieri - Les Danaides

Жанр: Classical opera
Страна-производитель диска: Made in the EU
Год издания диска: 2007
Издатель (лейбл): Oehms Classics
Номер по каталогу: OC 909
Дата записи: 2006
Аудиокодек: FLAC
Тип рипа: tracks+.cue
Битрейт аудио: lossless
Продолжительность: 1:51:53 (01:13:15 + 38:35)
Источник: релизер
сайт-источник/ник/другое: Duckjammy and Meeting in Music blogspot
Наличие сканов в содержимом раздачи: да
Треклист:

скрытый текст

CD 1

скрытый текст

Act 1
1.Ouverture06:21
Scene 1 (Danaüs, Lyncée, Chorus, Plancippe)
2.Recitative and Chorus (Danaüs): “Toi par qui, sans terreur”02:57
3.Recitative and Chorus (Danaüs): “Approchez-vous, mes chers neveux”03:42
4.Arioso and Chorus (Plancippe): “Loin de nous, jalousie affreuse”02:08
5.Recitative and Aria (Danaüs): “Je vois, jeunes époux”04:06
Scene 2 (Lyncée, Hypermnestre, Chorus)
6.Recitative (Lyncée): “Hypermnestre!”01:54
7.Duet (Lyncée): “Oublions tous ces jours de peine”03:30
8.Chorus: “Descends du ciel, douce Hyménée”02:56
ACT 2
Scene 1 (Chorus of the Danaïdes, Danaüs, Hypermnestre, Plancippe)
9.Chorus and Recitative (Les Danaïdes): “Où sommes-nous? ô ciel”.04:26
10.Chorus (Les Danaïdes): ”Divinité, de sang avide”01:54
11.Aria and Chorus (Danaüs): ”Je vous vois frémir de colère”.01:59
Scene 2 (Danaüs, Hypermnestre)
12.Recitative (Danaüs): “Quand tes soeurs ont juré”03:01
13.Aria (Hypermnestre): “Par les larmes dont votre fille”03:13
14.Recitative (Danaüs): “Fille indigne de la lumière”01:28
Scene 3 (Hypermnestre)
15.Recitative (Hypermnestre): “Où suis-je? où suis-je, ô ciel”01:58
16.Aria (Hypermnestre): ”Foudre céleste! je t’appelle”03:04
ACT 3
(Chorus, Chorus of the spouses, Danaüs, Lyncée, Hypermnestre, Chorus of the Danaïdes)
17.Chorus: “Célébrons à l’envi cette heureuse alliance”02:01
18.Allegretto01:43
19.Chorus (The spouses): “Descends dans le sein d’Amphitrite”03:02
20.Arioso (Danaüs): “Aux Dieux qui suivent l’Hyménée00:37
21.Chorus: “L’Amour sourit au doux vainqueur du Gange”01:35
22.Recitative (Lyncée): “Prends ce gage sacré”01:53
23.Aria (Lyncée): “Rends-moi ton coeur, ta confiance”02:34
24.Recitative and Aria (Hypermnestre): “Mon courage est à bout”02:29
25.Recitative (Danaüs): ”Reprends tes esprits et tes sens”01:29
26.Allegro Brillante02:21
27.Chorus (The Danaïdes): “Pour nos devoirs montrons un même zèle”02:44
28.Pantomime02:10
Total: 01:13:15
CD 2

скрытый текст

ACT 4
Scene 1 (Hypermnestre, Danaüs)
1.Recitative (Hypermnestre): “Ecoutez-moi, mon père”.02:15
Scene 2 (Hypermnestre)
2.Recitative (Hypermnestre): “Le barbare, il me fuit”03:02
3.Aria (Hypermnestre): “Vous qui voyez l’excès de ma faiblesse”02:38
Scene 3 (Lyncée, Hypermnestre)
4.Recitative (Lyncée): “Lyncée, à tes genoux”02:36
5.Aria (Lyncée): “A peine aux autels d’Hyménée02:51
6.Recitative (Hypermnestre): “Ma force m’abandonne”01:57
7.Duet (Hypermnestre): “Hélas! que ne puis-je te suivre”03:13
Scene 4 (Pélagus, Hypermestre, Lyncée, the spouses)
8.Recitative and Chorus (Pélagus): “Suivez-moi, Prince, à l’instant même”01:45
ACT 5
Scene 1 (Hypermnestre)
9.Recitative (Hypermnestre): “Où suis-je? où vais-je?”02:49
10.Aria (Hypermnestre): “Père barbare, arrache-moi”01:28
Scene 2, 3 (Danaüs, Hypermnestre)
11.Recitative (Danaüs) “Ma vengeance est-elle remplie”02:16
Scene 4 (Chorus of the Danaïdes, Plancippe, Danaüs)
12.Chorus (The Danaïdes): “Gloire!”02:29
Scene 5, 6 (Danaüs, the Danaïdes)
13.Recitative and Chorus (Danaüs): “Mes filles”01:32
14.Aria (Danaüs): “Dieux cruels!”01:01
Scene 7–9 (Officer 1–3, Danaüs, Hypermnestre)
15.Recitative (1st Officer): “Seigneur, Lyncée, accourant du rivage”02:11
Scene 10–12 (Pélagus, Hypermnestre, Lyncée, Chorus, the Danaïdes, Demons)
16.Recitative and Chorus (Pélagus): “Cruel! tiens, reçois”01:26
17.Chorus (Lyncée, Chorus): “La terre tremble, le ciel gronde”03:06
Total: 38:35
Исполнители:

скрытый текст

Antonio Salieri (1750–1825)
Les Danaïdes
Tragédie lyrique in Five Acts
Text by François Bailli du Roullet (1716–1786) and Louis Théodore Baron de Tchudi (1734–1784) after Ranieri de’ Calzabigi (1714–1795)
Dédiée à la Reine Marie Antoinette (dedicated to Queen Marie Antoinette)
First performance: April 26, 1784
Opéra, Paris
Hypermnestre, eldest daughter of Danaüs - Sophie Marin-Degor
Danaüs, king of Argos, brother of Égyptus - Hans Christoph Begemann
Lyncée, son of Égyptus - Christoph Genz
Plancippe, daughter of Danaüs - Kirsten Blaise
Pélagus, head of the guards of Danaüs - Wolfgang Frisch
First Officer - Sven Jüttner
Second Officer - Daniel Sütö
Third Officer - Jürgen Deppert
Chor und Orchester der Ludwigsburger Schlossfestspiele
Michael Hofstetter, conductor
Jan Hoffmann, chorus master
Chor der Ludwigsburger / Schlossfestspiele Ludwigsburg Schlossfestspiele Chorus
Sopran · Soprano
Dagmar Bayon
Christine Eisenschmid
Sabine Fischer-Hennen
Myriam Mayer
Birgitt Nachfolger
Saskia Paulsen
Melanie Schlerf
Isabell Schmitt
Inga Spies
Anja Stäbler Alt · Alto
Johanna Sabine Albert
Magda Cerna-Spanidis
Christina Corderman
Claudia Grimaldi
Anke Haas
Sibylle Henn
Uljana Lauterbach
Tenor · Tenor
Michael Bootz
Marc Hennen
Stephan Hieke
Alexander Illi
Andreas Kalmbach
Tobias Liebelt
Peter Witte
Bass · Bass
Jürgen Deppert
Frank Ellinger
Eberhard Gauger
Benedict Gründig
Sven Jüttner
Michael Kecker
Gebhard Räcke
Daniel Sütö
Релиз 02.08.2007

Лог создания рипа

CD1

скрытый текст

Exact Audio Copy V1.0 beta 3 from 29. August 2011
EAC extraction logfile from 8. May 2015, 13:35
Michael Hoffsetter / Salieri - Les Danaides Disc 1
Used drive : PLDS BD-RE DH-8B2SH Adapter: 0 ID: 0
Read mode : Secure
Utilize accurate stream : Yes
Defeat audio cache : Yes
Make use of C2 pointers : No
Read offset correction : 6
Overread into Lead-In and Lead-Out : No
Fill up missing offset samples with silence : Yes
Delete leading and trailing silent blocks : No
Null samples used in CRC calculations : Yes
Used interface : Native Win32 interface for Win NT & 2000
Gap handling : Appended to previous track
Used output format : User Defined Encoder
Selected bitrate : 1024 kBit/s
Quality : High
Add ID3 tag : No
Command line compressor : C:\Program Files (x86)\FLAC\flac.exe
Additional command line options : -8 -V -T "ARTIST=%artist%" -T "TITLE=%title%" -T "ALBUM=%albumtitle%" -T "DATE=%year%" -T "TRACKNUMBER=%tracknr%" -T "GENRE=%genre%" -T "PERFORMER=%albuminterpret%" -T "COMPOSER=%composer%" %haslyrics%--tag-from-file=LYRICS="%lyricsfile%"%haslyrics% -T "ALBUMARTIST=%albumartist%" -T "DISCNUMBER=%cdnumber%" -T "TOTALDISCS=%totalcds%" -T "TOTALTRACKS=%numduckjammytracks%" -T "COMMENT=%comment%" %source% -o %dest%
TOC of the extracted CD
Track | Start | Length | Start sector | End sector
---------------------------------------------------------
1 | 0:00.00 | 6:21.30 | 0 | 28604
2 | 6:21.30 | 2:57.24 | 28605 | 41903
3 | 9:18.54 | 3:42.12 | 41904 | 58565
4 | 13:00.66 | 2:08.04 | 58566 | 68169
5 | 15:08.70 | 4:06.35 | 68170 | 86654
6 | 19:15.30 | 1:54.40 | 86655 | 95244
7 | 21:09.70 | 3:30.22 | 95245 | 111016
8 | 24:40.17 | 2:56.69 | 111017 | 124285
9 | 27:37.11 | 4:26.21 | 124286 | 144256
10 | 32:03.32 | 1:54.59 | 144257 | 152865
11 | 33:58.16 | 1:59.60 | 152866 | 161850
12 | 35:58.01 | 3:01.48 | 161851 | 175473
13 | 38:59.49 | 3:13.49 | 175474 | 189997
14 | 42:13.23 | 1:28.49 | 189998 | 196646
15 | 43:41.72 | 1:58.38 | 196647 | 205534
16 | 45:40.35 | 3:04.74 | 205535 | 219408
17 | 48:45.34 | 2:01.32 | 219409 | 228515
18 | 50:46.66 | 1:43.65 | 228516 | 236305
19 | 52:30.56 | 3:02.63 | 236306 | 250018
20 | 55:33.44 | 0:37.12 | 250019 | 252805
21 | 56:10.56 | 1:35.39 | 252806 | 259969
22 | 57:46.20 | 1:53.60 | 259970 | 268504
23 | 59:40.05 | 2:34.11 | 268505 | 280065
24 | 62:14.16 | 2:29.70 | 280066 | 291310
25 | 64:44.11 | 1:29.62 | 291311 | 298047
26 | 66:13.73 | 2:21.54 | 298048 | 308676
27 | 68:35.52 | 2:44.39 | 308677 | 321015
28 | 71:20.16 | 2:11.00 | 321016 | 330840
Track 1
Filename C:\EAC\01 - Les Danaides- Overture.wav
Pre-gap length 0:00:02.00
Peak level 98.9 %
Extraction speed 4.9 X
Track quality 100.0 %
Test CRC 6D640C04
Copy CRC 6D640C04
Track not present in AccurateRip database
Copy OK
Track 2
Filename C:\EAC\02 - Act I Scene 1- Recitative and Chorus- Toi par qui, sans terreur (Danaus, Lyncee, Chorus).wav
Peak level 98.5 %
Extraction speed 4.9 X
Track quality 100.0 %
Test CRC 5D065303
Copy CRC 5D065303
Track not present in AccurateRip database
Copy OK
Track 3
Filename C:\EAC\03 - Act I Scene 1- Recitative and Chorus- Approchez-vous, mes chers neveux (Danaus, Chorus).wav
Pre-gap length 0:00:00.01
Peak level 99.7 %
Extraction speed 4.0 X
Track quality 100.0 %
Test CRC 51C101D3
Copy CRC 51C101D3
Track not present in AccurateRip database
Copy OK
Track 4
Filename C:\EAC\04 - Act I Scene 1- Arioso and Chorus- Loin de nous, jalousie affreuse (Plancippe, Chorus).wav
Pre-gap length 0:00:00.01
Peak level 89.9 %
Extraction speed 5.2 X
Track quality 100.0 %
Test CRC 4736AF90
Copy CRC 4736AF90
Track not present in AccurateRip database
Copy OK
Track 5
Filename C:\EAC\05 - Act I Scene 1- Recitative and Aria- Je vois, jeunes epoux (Danaus).wav
Pre-gap length 0:00:00.01
Peak level 100.0 %
Extraction speed 6.0 X
Track quality 100.0 %
Test CRC E3BF4DC1
Copy CRC E3BF4DC1
Track not present in AccurateRip database
Copy OK
Track 6
Filename C:\EAC\06 - Act I Scene 2- Recitative- Hypermnestre! (Lyncee, Hypermnestre).wav
Pre-gap length 0:00:00.01
Peak level 77.8 %
Extraction speed 3.9 X
Track quality 99.9 %
Test CRC ED23A99E
Copy CRC ED23A99E
Track not present in AccurateRip database
Copy OK
Track 7
Filename C:\EAC\07 - Act I Scene 2- Duo- Oublions tous ces jours de peine (Lyncee, Hypermnestre).wav
Pre-gap length 0:00:00.01
Peak level 99.5 %
Extraction speed 6.3 X
Track quality 100.0 %
Test CRC 3FACE654
Copy CRC 3FACE654
Track not present in AccurateRip database
Copy OK
Track 8
Filename C:\EAC\08 - Act I Scene 2- Descends du ciel, douce Hymenee (Chorus).wav
Pre-gap length 0:00:00.01
Peak level 98.2 %
Extraction speed 5.0 X
Track quality 99.9 %
Test CRC 37FE35C7
Copy CRC 37FE35C7
Track not present in AccurateRip database
Copy OK
Track 9
Filename C:\EAC\09 - Act II Scene 1- Chorus and Recitative- Ou sommes-nous O ciel! (Danaids, Danaus, Hypermnestre, Plancippe).wav
Pre-gap length 0:00:00.01
Peak level 96.4 %
Extraction speed 7.0 X
Track quality 100.0 %
Test CRC D482A7B8
Copy CRC D482A7B8
Track not present in AccurateRip database
Copy OK
Track 10
Filename C:\EAC\10 - Act II Scene 1- Divinite, de sang avide (Chorus of the Danaids, Hypermnestre, Danaus).wav
Pre-gap length 0:00:00.01
Peak level 98.5 %
Extraction speed 6.2 X
Track quality 100.0 %
Test CRC 91ED3D42
Copy CRC 91ED3D42
Track not present in AccurateRip database
Copy OK
Track 11
Filename C:\EAC\11 - Act II Scene 1- Aria and Chorus- Je vous vois fremir de colere (Danaus, Chorus of the Danaids).wav
Pre-gap length 0:00:00.01
Peak level 97.9 %
Extraction speed 6.5 X
Track quality 100.0 %
Test CRC 46E1CAD8
Copy CRC 46E1CAD8
Track not present in AccurateRip database
Copy OK
Track 12
Filename C:\EAC\12 - Act II Scene 2- Recitative- Quand tes soeurs ont jure (Danaus, Hypermnestre).wav
Pre-gap length 0:00:00.01
Peak level 100.0 %
Extraction speed 7.2 X
Track quality 100.0 %
Test CRC 32A5DFD9
Copy CRC 32A5DFD9
Track not present in AccurateRip database
Copy OK
Track 13
Filename C:\EAC\13 - Act II Scene 2- Recitative and Aria- Par les larmes dont votre fille (Hypermnestre).wav
Pre-gap length 0:00:00.01
Peak level 90.9 %
Extraction speed 7.4 X
Track quality 100.0 %
Test CRC 871C13E6
Copy CRC 871C13E6
Track not present in AccurateRip database
Copy OK
Track 14
Filename C:\EAC\14 - Act II Scene 2- Recitative- Fille indigne de la lumiere (Danaus).wav
Pre-gap length 0:00:00.01
Peak level 77.6 %
Extraction speed 4.3 X
Track quality 99.8 %
Test CRC 5AB0CEF0
Copy CRC 5AB0CEF0
Track not present in AccurateRip database
Copy OK
Track 15
Filename C:\EAC\15 - Act II Scene 3- Recitative- Ou suis-je ou suis-je, o ciel (Hypermnestre).wav
Pre-gap length 0:00:00.01
Peak level 94.1 %
Extraction speed 5.1 X
Track quality 99.9 %
Test CRC A49FD199
Copy CRC A49FD199
Track not present in AccurateRip database
Copy OK
Track 16
Filename C:\EAC\16 - Act II Scene 3- Aria- Foudre celeste! je t'appelle! (Hypermnestre).wav
Pre-gap length 0:00:00.01
Peak level 99.4 %
Extraction speed 7.7 X
Track quality 100.0 %
Test CRC 5CCF4740
Copy CRC 5CCF4740
Track not present in AccurateRip database
Copy OK
Track 17
Filename C:\EAC\17 - Act III- Celebrons a l'envi cette heureuse alliance (Chorus).wav
Pre-gap length 0:00:00.01
Peak level 98.3 %
Extraction speed 7.3 X
Track quality 100.0 %
Test CRC 7C3BE33E
Copy CRC 7C3BE33E
Track not present in AccurateRip database
Copy OK
Track 18
Filename C:\EAC\18 - Act III- Allegretto.wav
Pre-gap length 0:00:00.01
Peak level 56.4 %
Extraction speed 7.1 X
Track quality 100.0 %
Test CRC 442E5AE0
Copy CRC 442E5AE0
Track not present in AccurateRip database
Copy OK
Track 19
Filename C:\EAC\19 - Act III- Descends dans le sein d'Amphitrite (Chorus of Spouses).wav
Pre-gap length 0:00:00.01
Peak level 72.3 %
Extraction speed 8.1 X
Track quality 100.0 %
Test CRC 55F744B2
Copy CRC 55F744B2
Track not present in AccurateRip database
Copy OK
Track 20
Filename C:\EAC\20 - Act III- Arioso- Aux Dieux qui suivent l'Hymenee (Danaus).wav
Pre-gap length 0:00:00.01
Peak level 62.2 %
Extraction speed 2.7 X
Track quality 99.7 %
Test CRC C377E2AC
Copy CRC C377E2AC
Track not present in AccurateRip database
Copy OK
Track 21
Filename C:\EAC\21 - Act III- L'Amour sourit au doux vainqueur du Gange (Chorus).wav
Pre-gap length 0:00:00.01
Peak level 96.7 %
Extraction speed 7.2 X
Track quality 100.0 %
Test CRC 80D26D0F
Copy CRC 80D26D0F
Track not present in AccurateRip database
Copy OK
Track 22
Filename C:\EAC\22 - Act III- Recitative- Prends ce gage sacre (Lyncee, Hypermnestre, Danaus).wav
Pre-gap length 0:00:00.01
Peak level 57.7 %
Extraction speed 7.5 X
Track quality 100.0 %
Test CRC 0ECCDC37
Copy CRC 0ECCDC37
Track not present in AccurateRip database
Copy OK
Track 23
Filename C:\EAC\23 - Act III- Aria- Rends-moi ton coeur, ta confiance (Lyncee).wav
Pre-gap length 0:00:00.01
Peak level 60.2 %
Extraction speed 8.2 X
Track quality 100.0 %
Test CRC 060DD90F
Copy CRC 060DD90F
Track not present in AccurateRip database
Copy OK
Track 24
Filename C:\EAC\24 - Act III- Recitative and Aria- Mon courage est a bout (Hypermnestre, Danaus).wav
Pre-gap length 0:00:00.01
Peak level 96.5 %
Extraction speed 8.3 X
Track quality 100.0 %
Test CRC 84EF6C07
Copy CRC 84EF6C07
Track not present in AccurateRip database
Copy OK
Track 25
Filename C:\EAC\25 - Act III- Recitative- Reprends tes esprits et tes sens (Danaus).wav
Pre-gap length 0:00:00.01
Peak level 57.4 %
Extraction speed 7.3 X
Track quality 100.0 %
Test CRC 04FF87BE
Copy CRC 04FF87BE
Track not present in AccurateRip database
Copy OK
Track 26
Filename C:\EAC\26 - Act III- Dance- Allegro Brillante.wav
Pre-gap length 0:00:00.01
Peak level 95.6 %
Extraction speed 6.2 X
Track quality 99.9 %
Test CRC 09FF0E84
Copy CRC 09FF0E84
Track not present in AccurateRip database
Copy OK
Track 27
Filename C:\EAC\27 - Act III- Pour nos devoirs montrons un meme zele (Danaids, Chorus).wav
Pre-gap length 0:00:00.01
Peak level 96.6 %
Extraction speed 8.7 X
Track quality 100.0 %
Test CRC 249E4C9A
Copy CRC 249E4C9A
Track not present in AccurateRip database
Copy OK
Track 28
Filename C:\EAC\28 - Act III- Pantomime.wav
Pre-gap length 0:00:00.01
Peak level 61.2 %
Extraction speed 8.5 X
Track quality 100.0 %
Test CRC 27E24174
Copy CRC 27E24174
Track not present in AccurateRip database
Copy OK
None of the tracks are present in the AccurateRip database
No errors occurred
End of status report
---- CUETools DB Plugin V2.1.3
[CTDB TOCID: UgYAluF6vAUT8dw7iosUtAojxag-] found, Submit result: UgYAluF6vAUT8dw7iosUtAojxag- has been confirmed
[128dc829] (1/1) Accurately ripped
==== Log checksum 72A4C4E5A4E11B0073199A2ECC1DE98D673BD8D9F359CFFE8EF4CB1600C6FFB0 ====
CD2

скрытый текст

Exact Audio Copy V1.0 beta 3 from 29. August 2011
EAC extraction logfile from 8. May 2015, 14:21
Michael Hoffstetter / Salieri - Les Danaides Disc 2
Used drive : PLDS BD-RE DH-8B2SH Adapter: 0 ID: 0
Read mode : Secure
Utilize accurate stream : Yes
Defeat audio cache : Yes
Make use of C2 pointers : No
Read offset correction : 6
Overread into Lead-In and Lead-Out : No
Fill up missing offset samples with silence : Yes
Delete leading and trailing silent blocks : No
Null samples used in CRC calculations : Yes
Used interface : Native Win32 interface for Win NT & 2000
Gap handling : Appended to previous track
Used output format : User Defined Encoder
Selected bitrate : 1024 kBit/s
Quality : High
Add ID3 tag : No
Command line compressor : C:\Program Files (x86)\FLAC\flac.exe
Additional command line options : -8 -V -T "ARTIST=%artist%" -T "TITLE=%title%" -T "ALBUM=%albumtitle%" -T "DATE=%year%" -T "TRACKNUMBER=%tracknr%" -T "GENRE=%genre%" -T "PERFORMER=%albuminterpret%" -T "COMPOSER=%composer%" %haslyrics%--tag-from-file=LYRICS="%lyricsfile%"%haslyrics% -T "ALBUMARTIST=%albumartist%" -T "DISCNUMBER=%cdnumber%" -T "TOTALDISCS=%totalcds%" -T "TOTALTRACKS=%numduckjammytracks%" -T "COMMENT=%comment%" %source% -o %dest%
TOC of the extracted CD
Track | Start | Length | Start sector | End sector
---------------------------------------------------------
1 | 0:00.00 | 2:15.58 | 0 | 10182
2 | 2:15.58 | 3:02.05 | 10183 | 23837
3 | 5:17.63 | 2:38.71 | 23838 | 35758
4 | 7:56.59 | 2:36.29 | 35759 | 47487
5 | 10:33.13 | 2:51.05 | 47488 | 60317
6 | 13:24.18 | 1:57.55 | 60318 | 69147
7 | 15:21.73 | 3:13.54 | 69148 | 83676
8 | 18:35.52 | 1:45.60 | 83677 | 91611
9 | 20:21.37 | 2:49.58 | 91612 | 104344
10 | 23:11.20 | 1:28.44 | 104345 | 110988
11 | 24:39.64 | 2:16.63 | 110989 | 121251
12 | 26:56.52 | 2:29.45 | 121252 | 132471
13 | 29:26.22 | 1:32.43 | 132472 | 139414
14 | 30:58.65 | 1:01.34 | 139415 | 144023
15 | 32:00.24 | 2:11.01 | 144024 | 153849
16 | 34:11.25 | 1:26.03 | 153850 | 160302
17 | 35:37.28 | 3:06.20 | 160303 | 174272
Track 1
Filename C:\EAC\01 - Act IV Scene 1- Recitative- Ecoutez-moi, mon pere (Hypermnestre, Danaus).wav
Pre-gap length 0:00:02.00
Peak level 100.0 %
Extraction speed 1.2 X
Track quality 99.9 %
Test CRC 7BE58FA8
Copy CRC 7BE58FA8
Track not present in AccurateRip database
Copy OK
Track 2
Filename C:\EAC\02 - Act IV Scene 2- Recitative- Le barbare, il me fuit (Hypermnestre).wav
Peak level 93.3 %
Extraction speed 2.1 X
Track quality 100.0 %
Test CRC 6091924B
Copy CRC 6091924B
Track not present in AccurateRip database
Copy OK
Track 3
Filename C:\EAC\03 - Act IV Scene 2- Aria- Vous qui voyez l'exces de ma faiblesse (Hypermnestre).wav
Peak level 99.0 %
Extraction speed 2.2 X
Track quality 100.0 %
Test CRC 31BB8D29
Copy CRC 31BB8D29
Track not present in AccurateRip database
Copy OK
Track 4
Filename C:\EAC\04 - Act IV Scene 3- Recitative- Lyncee, a tes genoux (Lyncee, Hypermnestre).wav
Peak level 98.1 %
Extraction speed 1.5 X
Track quality 99.9 %
Test CRC 20FF0DB4
Copy CRC 20FF0DB4
Track not present in AccurateRip database
Copy OK
Track 5
Filename C:\EAC\05 - Act IV Scene 3- Aria- A peine aux autels d'Hymenee (Lyncee, Hypermnestre).wav
Peak level 96.6 %
Extraction speed 2.4 X
Track quality 100.0 %
Test CRC 1177E29D
Copy CRC 1177E29D
Track not present in AccurateRip database
Copy OK
Track 6
Filename C:\EAC\06 - Act IV Scene 3- Recitative- Ma force m'abandonne (Hypermnestre, Lyncee).wav
Peak level 82.2 %
Extraction speed 2.4 X
Track quality 100.0 %
Test CRC 43C78261
Copy CRC 43C78261
Track not present in AccurateRip database
Copy OK
Track 7
Filename C:\EAC\07 - Act IV Scene 3- Duo- Helas! que ne puis-je te suivre (Hypermnestre, Lyncee).wav
Peak level 100.0 %
Extraction speed 2.7 X
Track quality 100.0 %
Test CRC 0A81F02F
Copy CRC 0A81F02F
Track not present in AccurateRip database
Copy OK
Track 8
Filename C:\EAC\08 - Act IV Scene 4- Recitative and Chorus- Suivez-moi, Prince, a l'instant meme (Pelagus, Hypermnestre, Lyncee, Chorus of Spouses).wav
Peak level 99.7 %
Extraction speed 2.5 X
Track quality 100.0 %
Test CRC C7F5AAEA
Copy CRC C7F5AAEA
Track not present in AccurateRip database
Copy OK
Track 9
Filename C:\EAC\09 - Act V Scene 1- Recitative- Ou suis-je ou vais-je (Hypermnestre).wav
Peak level 95.1 %
Extraction speed 2.8 X
Track quality 100.0 %
Test CRC D58A03FB
Copy CRC D58A03FB
Track not present in AccurateRip database
Copy OK
Track 10
Filename C:\EAC\10 - Act V Scene 1- Aria- Pere barbare, arrache-moi (Hypermnestre).wav
Peak level 99.4 %
Extraction speed 2.5 X
Track quality 100.0 %
Test CRC 7BD9215D
Copy CRC 7BD9215D
Track not present in AccurateRip database
Copy OK
Track 11
Filename C:\EAC\11 - Act V Scene 2- Recitative- Ma vengeance est-elle remplie (Danaus, Hypermnestre).wav
Peak level 95.4 %
Extraction speed 2.8 X
Track quality 100.0 %
Test CRC 92468A06
Copy CRC 92468A06
Track not present in AccurateRip database
Copy OK
Track 12
Filename C:\EAC\12 - Act V Scene 4- Gloire! (Chorus of the Danaids, Plancippe).wav
Peak level 99.9 %
Extraction speed 3.0 X
Track quality 100.0 %
Test CRC D75D8B21
Copy CRC D75D8B21
Track not present in AccurateRip database
Copy OK
Track 13
Filename C:\EAC\13 - Act V Scene 5- Recitative and Chorus- Mes filles, chers objets de ma reconnaissance (Danaus, Chorus of the Danaids).wav
Peak level 98.1 %
Extraction speed 2.7 X
Track quality 100.0 %
Test CRC 5ECB3ED0
Copy CRC 5ECB3ED0
Track not present in AccurateRip database
Copy OK
Track 14
Filename C:\EAC\14 - Act V Scene 6- Recitative and Aria- Dieux! (Danaus).wav
Peak level 98.1 %
Extraction speed 2.4 X
Track quality 100.0 %
Test CRC 1C016DF6
Copy CRC 1C016DF6
Track not present in AccurateRip database
Copy OK
Track 15
Filename C:\EAC\15 - Act V Scene 7- Recitative- Seigneur, Lyncee, accourant du rivage (First Officer, Danaus).wav
Peak level 98.6 %
Extraction speed 3.0 X
Track quality 100.0 %
Test CRC 30F72A37
Copy CRC 30F72A37
Track not present in AccurateRip database
Copy OK
Track 16
Filename C:\EAC\16 - Act V Scene 10- Recitative and Chorus- Cruel! tiens, recois (Pelagus, Hypermnestre, Lyncee).wav
Peak level 79.8 %
Extraction speed 2.8 X
Track quality 100.0 %
Test CRC 30CECE9A
Copy CRC 30CECE9A
Track not present in AccurateRip database
Copy OK
Track 17
Filename C:\EAC\17 - Act V Scene 11- Recitative and Chorus- La terre tremble (Lyncee, Chorus).wav
Peak level 99.0 %
Extraction speed 2.3 X
Track quality 99.9 %
Test CRC 3A626540
Copy CRC 3A626540
Track not present in AccurateRip database
Copy OK
None of the tracks are present in the AccurateRip database
No errors occurred
End of status report
---- CUETools DB Plugin V2.1.3
[CTDB TOCID: ewszmnWM_cEsBilf0QJj_zqn1Is-] found, Submit result: ewszmnWM_cEsBilf0QJj_zqn1Is- has been confirmed
[4b2fc43b] (1/1) Accurately ripped
==== Log checksum 26E7091212423363920F5D05F6A517439189D16B7045D1DF182699018C593CFA ====

Содержание индексной карты (.CUE)

CD1

скрытый текст

REM GENRE Opera
REM DATE 2008
REM DISCID 9C113B1C
REM COMMENT "ExactAudioCopy v1.0b3"
CATALOG 4260034869097
PERFORMER "Michael Hoffsetter"
TITLE "Salieri - Les Danaides Disc 1"
FILE "01 - Les Danaides- Overture.flac" WAVE
TRACK 01 AUDIO
TITLE "Les Danaides: Overture"
PERFORMER "Michael Hoffsetter"
ISRC DEU920790901
FLAGS DCP
INDEX 01 00:00:00
FILE "02 - Act I Scene 1- Recitative and Chorus- Toi par qui, sans terreur (Danaus, Lyncee, Chorus).flac" WAVE
TRACK 02 AUDIO
TITLE "Act I Scene 1: Recitative and Chorus: Toi par qui, sans terreur (Danaus, Lync..."
PERFORMER "Michael Hoffsetter"
ISRC DEU920790902
FLAGS DCP
INDEX 01 00:00:00
FILE "03 - Act I Scene 1- Recitative and Chorus- Approchez-vous, mes chers neveux (Danaus, Chorus).flac" WAVE
TRACK 03 AUDIO
TITLE "Act I Scene 1: Recitative and Chorus: Approchez-vous, mes chers neveux (Danau..."
PERFORMER "Michael Hoffsetter"
ISRC DEU920790903
FLAGS DCP
INDEX 01 00:00:00
FILE "04 - Act I Scene 1- Arioso and Chorus- Loin de nous, jalousie affreuse (Plancippe, Chorus).flac" WAVE
TRACK 04 AUDIO
TITLE "Act I Scene 1: Arioso and Chorus: Loin de nous, jalousie affreuse (Plancippe,..."
PERFORMER "Michael Hoffsetter"
ISRC DEU920790904
FLAGS DCP
INDEX 01 00:00:00
FILE "05 - Act I Scene 1- Recitative and Aria- Je vois, jeunes epoux (Danaus).flac" WAVE
TRACK 05 AUDIO
TITLE "Act I Scene 1: Recitative and Aria: Je vois, jeunes epoux (Danaus)"
PERFORMER "Michael Hoffsetter"
ISRC DEU920790905
FLAGS DCP
INDEX 01 00:00:00
FILE "06 - Act I Scene 2- Recitative- Hypermnestre! (Lyncee, Hypermnestre).flac" WAVE
TRACK 06 AUDIO
TITLE "Act I Scene 2: Recitative: Hypermnestre! (Lyncee, Hypermnestre)"
PERFORMER "Michael Hoffsetter"
ISRC DEU920790906
FLAGS DCP
INDEX 01 00:00:00
FILE "07 - Act I Scene 2- Duo- Oublions tous ces jours de peine (Lyncee, Hypermnestre).flac" WAVE
TRACK 07 AUDIO
TITLE "Act I Scene 2: Duo: Oublions tous ces jours de peine (Lyncee, Hypermnestre)"
PERFORMER "Michael Hoffsetter"
ISRC DEU920790907
FLAGS DCP
INDEX 01 00:00:00
FILE "08 - Act I Scene 2- Descends du ciel, douce Hymenee (Chorus).flac" WAVE
TRACK 08 AUDIO
TITLE "Act I Scene 2: Descends du ciel, douce Hymenee (Chorus)"
PERFORMER "Michael Hoffsetter"
ISRC DEU920790908
FLAGS DCP
INDEX 01 00:00:00
FILE "09 - Act II Scene 1- Chorus and Recitative- Ou sommes-nous O ciel! (Danaids, Danaus, Hypermnestre, Plancippe).flac" WAVE
TRACK 09 AUDIO
TITLE "Act II Scene 1: Chorus and Recitative: Ou sommes-nous? O ciel! (Danaids, Dana..."
PERFORMER "Michael Hoffsetter"
ISRC DEU920790909
FLAGS DCP
INDEX 01 00:00:00
FILE "10 - Act II Scene 1- Divinite, de sang avide (Chorus of the Danaids, Hypermnestre, Danaus).flac" WAVE
TRACK 10 AUDIO
TITLE "Act II Scene 1: Divinite, de sang avide (Chorus of the Danaids, Hypermnestre,..."
PERFORMER "Michael Hoffsetter"
ISRC DEU920790910
FLAGS DCP
INDEX 01 00:00:00
FILE "11 - Act II Scene 1- Aria and Chorus- Je vous vois fremir de colere (Danaus, Chorus of the Danaids).flac" WAVE
TRACK 11 AUDIO
TITLE "Act II Scene 1: Aria and Chorus: Je vous vois fremir de colere (Danaus, Choru..."
PERFORMER "Michael Hoffsetter"
ISRC DEU920790911
FLAGS DCP
INDEX 01 00:00:00
FILE "12 - Act II Scene 2- Recitative- Quand tes soeurs ont jure (Danaus, Hypermnestre).flac" WAVE
TRACK 12 AUDIO
TITLE "Act II Scene 2: Recitative: Quand tes soeurs ont jure (Danaus, Hypermnestre)"
PERFORMER "Michael Hoffsetter"
ISRC DEU920790912
FLAGS DCP
INDEX 01 00:00:00
FILE "13 - Act II Scene 2- Recitative and Aria- Par les larmes dont votre fille (Hypermnestre).flac" WAVE
TRACK 13 AUDIO
TITLE "Act II Scene 2: Recitative and Aria: Par les larmes dont votre fille (Hypermn..."
PERFORMER "Michael Hoffsetter"
ISRC DEU920790913
FLAGS DCP
INDEX 01 00:00:00
FILE "14 - Act II Scene 2- Recitative- Fille indigne de la lumiere (Danaus).flac" WAVE
TRACK 14 AUDIO
TITLE "Act II Scene 2: Recitative: Fille indigne de la lumiere (Danaus)"
PERFORMER "Michael Hoffsetter"
ISRC DEU920790914
FLAGS DCP
INDEX 01 00:00:00
FILE "15 - Act II Scene 3- Recitative- Ou suis-je ou suis-je, o ciel (Hypermnestre).flac" WAVE
TRACK 15 AUDIO
TITLE "Act II Scene 3: Recitative: Ou suis-je? ou suis-je, o ciel? (Hypermnestre)"
PERFORMER "Michael Hoffsetter"
ISRC DEU920790915
FLAGS DCP
INDEX 01 00:00:00
FILE "16 - Act II Scene 3- Aria- Foudre celeste! je t'appelle! (Hypermnestre).flac" WAVE
TRACK 16 AUDIO
TITLE "Act II Scene 3: Aria: Foudre celeste! je t'appelle! (Hypermnestre)"
PERFORMER "Michael Hoffsetter"
ISRC DEU920790916
FLAGS DCP
INDEX 01 00:00:00
FILE "17 - Act III- Celebrons a l'envi cette heureuse alliance (Chorus).flac" WAVE
TRACK 17 AUDIO
TITLE "Act III: Celebrons a l'envi cette heureuse alliance (Chorus)"
PERFORMER "Michael Hoffsetter"
ISRC DEU920790917
FLAGS DCP
INDEX 01 00:00:00
FILE "18 - Act III- Allegretto.flac" WAVE
TRACK 18 AUDIO
TITLE "Act III: Allegretto"
PERFORMER "Michael Hoffsetter"
ISRC DEU920790918
FLAGS DCP
INDEX 01 00:00:00
FILE "19 - Act III- Descends dans le sein d'Amphitrite (Chorus of Spouses).flac" WAVE
TRACK 19 AUDIO
TITLE "Act III: Descends dans le sein d'Amphitrite (Chorus of Spouses)"
PERFORMER "Michael Hoffsetter"
ISRC DEU920790919
FLAGS DCP
INDEX 01 00:00:00
FILE "20 - Act III- Arioso- Aux Dieux qui suivent l'Hymenee (Danaus).flac" WAVE
TRACK 20 AUDIO
TITLE "Act III: Arioso: Aux Dieux qui suivent l'Hymenee (Danaus)"
PERFORMER "Michael Hoffsetter"
ISRC DEU920790920
FLAGS DCP
INDEX 01 00:00:00
FILE "21 - Act III- L'Amour sourit au doux vainqueur du Gange (Chorus).flac" WAVE
TRACK 21 AUDIO
TITLE "Act III: L'Amour sourit au doux vainqueur du Gange (Chorus)"
PERFORMER "Michael Hoffsetter"
ISRC DEU920790921
FLAGS DCP
INDEX 01 00:00:00
FILE "22 - Act III- Recitative- Prends ce gage sacre (Lyncee, Hypermnestre, Danaus).flac" WAVE
TRACK 22 AUDIO
TITLE "Act III: Recitative: Prends ce gage sacre (Lyncee, Hypermnestre, Danaus)"
PERFORMER "Michael Hoffsetter"
ISRC DEU920790922
FLAGS DCP
INDEX 01 00:00:00
FILE "23 - Act III- Aria- Rends-moi ton coeur, ta confiance (Lyncee).flac" WAVE
TRACK 23 AUDIO
TITLE "Act III: Aria: Rends-moi ton coeur, ta confiance (Lyncee)"
PERFORMER "Michael Hoffsetter"
ISRC DEU920790923
FLAGS DCP
INDEX 01 00:00:00
FILE "24 - Act III- Recitative and Aria- Mon courage est a bout (Hypermnestre, Danaus).flac" WAVE
TRACK 24 AUDIO
TITLE "Act III: Recitative and Aria: Mon courage est a bout (Hypermnestre, Danaus)"
PERFORMER "Michael Hoffsetter"
ISRC DEU920790924
FLAGS DCP
INDEX 01 00:00:00
FILE "25 - Act III- Recitative- Reprends tes esprits et tes sens (Danaus).flac" WAVE
TRACK 25 AUDIO
TITLE "Act III: Recitative: Reprends tes esprits et tes sens (Danaus)"
PERFORMER "Michael Hoffsetter"
ISRC DEU920790925
FLAGS DCP
INDEX 01 00:00:00
FILE "26 - Act III- Dance- Allegro Brillante.flac" WAVE
TRACK 26 AUDIO
TITLE "Act III: Dance: Allegro Brillante"
PERFORMER "Michael Hoffsetter"
ISRC DEU920790926
FLAGS DCP
INDEX 01 00:00:00
FILE "27 - Act III- Pour nos devoirs montrons un meme zele (Danaids, Chorus).flac" WAVE
TRACK 27 AUDIO
TITLE "Act III: Pour nos devoirs montrons un meme zele (Danaids, Chorus)"
PERFORMER "Michael Hoffsetter"
ISRC DEU920790927
FLAGS DCP
INDEX 01 00:00:00
FILE "28 - Act III- Pantomime.flac" WAVE
TRACK 28 AUDIO
TITLE "Act III: Pantomime"
PERFORMER "Michael Hoffsetter"
ISRC DEU920790928
FLAGS DCP
INDEX 01 00:00:00
CD2

скрытый текст

REM GENRE Opera
REM DATE 2008
REM DISCID E3091311
REM COMMENT "ExactAudioCopy v1.0b3"
CATALOG 4260034869097
PERFORMER "Michael Hoffstetter"
TITLE "Salieri - Les Danaides Disc 2"
FILE "01 - Act IV Scene 1- Recitative- Ecoutez-moi, mon pere (Hypermnestre, Danaus).flac" WAVE
TRACK 01 AUDIO
TITLE "Act IV Scene 1: Recitative: Ecoutez-moi, mon pere (Hypermnestre, Danaus)"
PERFORMER "Michael Hoffstetter"
ISRC DEU920790929
FLAGS DCP
INDEX 01 00:00:00
FILE "02 - Act IV Scene 2- Recitative- Le barbare, il me fuit (Hypermnestre).flac" WAVE
TRACK 02 AUDIO
TITLE "Act IV Scene 2: Recitative: Le barbare, il me fuit (Hypermnestre)"
PERFORMER "Michael Hoffstetter"
ISRC DEU920790930
FLAGS DCP
INDEX 01 00:00:00
FILE "03 - Act IV Scene 2- Aria- Vous qui voyez l'exces de ma faiblesse (Hypermnestre).flac" WAVE
TRACK 03 AUDIO
TITLE "Act IV Scene 2: Aria: Vous qui voyez l'exces de ma faiblesse (Hypermnestre)"
PERFORMER "Michael Hoffstetter"
ISRC DEU920790931
FLAGS DCP
INDEX 01 00:00:00
FILE "04 - Act IV Scene 3- Recitative- Lyncee, a tes genoux (Lyncee, Hypermnestre).flac" WAVE
TRACK 04 AUDIO
TITLE "Act IV Scene 3: Recitative: Lyncee, a tes genoux (Lyncee, Hypermnestre)"
PERFORMER "Michael Hoffstetter"
ISRC DEU920790932
FLAGS DCP
INDEX 01 00:00:00
FILE "05 - Act IV Scene 3- Aria- A peine aux autels d'Hymenee (Lyncee, Hypermnestre).flac" WAVE
TRACK 05 AUDIO
TITLE "Act IV Scene 3: Aria: A peine aux autels d'Hymenee (Lyncee, Hypermnestre)"
PERFORMER "Michael Hoffstetter"
ISRC DEU920790933
FLAGS DCP
INDEX 01 00:00:00
FILE "06 - Act IV Scene 3- Recitative- Ma force m'abandonne (Hypermnestre, Lyncee).flac" WAVE
TRACK 06 AUDIO
TITLE "Act IV Scene 3: Recitative: Ma force m'abandonne (Hypermnestre, Lyncee)"
PERFORMER "Michael Hoffstetter"
ISRC DEU920790934
FLAGS DCP
INDEX 01 00:00:00
FILE "07 - Act IV Scene 3- Duo- Helas! que ne puis-je te suivre (Hypermnestre, Lyncee).flac" WAVE
TRACK 07 AUDIO
TITLE "Act IV Scene 3: Duo: Helas! que ne puis-je te suivre (Hypermnestre, Lyncee)"
PERFORMER "Michael Hoffstetter"
ISRC DEU920790935
FLAGS DCP
INDEX 01 00:00:00
FILE "08 - Act IV Scene 4- Recitative and Chorus- Suivez-moi, Prince, a l'instant meme (Pelagus, Hypermnestre, Lyncee, Chorus of Spouses).flac" WAVE
TRACK 08 AUDIO
TITLE "Act IV Scene 4: Recitative and Chorus: Suivez-moi, Prince, a l'instant meme (..."
PERFORMER "Michael Hoffstetter"
ISRC DEU920790936
FLAGS DCP
INDEX 01 00:00:00
FILE "09 - Act V Scene 1- Recitative- Ou suis-je ou vais-je (Hypermnestre).flac" WAVE
TRACK 09 AUDIO
TITLE "Act V Scene 1: Recitative: Ou suis-je? ou vais-je? (Hypermnestre)"
PERFORMER "Michael Hoffstetter"
ISRC DEU920790937
FLAGS DCP
INDEX 01 00:00:00
FILE "10 - Act V Scene 1- Aria- Pere barbare, arrache-moi (Hypermnestre).flac" WAVE
TRACK 10 AUDIO
TITLE "Act V Scene 1: Aria: Pere barbare, arrache-moi (Hypermnestre)"
PERFORMER "Michael Hoffstetter"
ISRC DEU920790938
FLAGS DCP
INDEX 01 00:00:00
FILE "11 - Act V Scene 2- Recitative- Ma vengeance est-elle remplie (Danaus, Hypermnestre).flac" WAVE
TRACK 11 AUDIO
TITLE "Act V Scene 2: Recitative: Ma vengeance est-elle remplie? (Danaus, Hypermnestre)"
PERFORMER "Michael Hoffstetter"
ISRC DEU920790939
FLAGS DCP
INDEX 01 00:00:00
FILE "12 - Act V Scene 4- Gloire! (Chorus of the Danaids, Plancippe).flac" WAVE
TRACK 12 AUDIO
TITLE "Act V Scene 4: Gloire! (Chorus of the Danaids, Plancippe)"
PERFORMER "Michael Hoffstetter"
ISRC DEU920790940
FLAGS DCP
INDEX 01 00:00:00
FILE "13 - Act V Scene 5- Recitative and Chorus- Mes filles, chers objets de ma reconnaissance (Danaus, Chorus of the Danaids).flac" WAVE
TRACK 13 AUDIO
TITLE "Act V Scene 5: Recitative and Chorus: Mes filles, chers objets de ma reconnai..."
PERFORMER "Michael Hoffstetter"
ISRC DEU920790941
FLAGS DCP
INDEX 01 00:00:00
FILE "14 - Act V Scene 6- Recitative and Aria- Dieux! (Danaus).flac" WAVE
TRACK 14 AUDIO
TITLE "Act V Scene 6: Recitative and Aria: Dieux! (Danaus)"
PERFORMER "Michael Hoffstetter"
ISRC DEU920790942
FLAGS DCP
INDEX 01 00:00:00
FILE "15 - Act V Scene 7- Recitative- Seigneur, Lyncee, accourant du rivage (First Officer, Danaus).flac" WAVE
TRACK 15 AUDIO
TITLE "Act V Scene 7: Recitative: Seigneur, Lyncee, accourant du rivage (First Offic..."
PERFORMER "Michael Hoffstetter"
ISRC DEU920790943
FLAGS DCP
INDEX 01 00:00:00
FILE "16 - Act V Scene 10- Recitative and Chorus- Cruel! tiens, recois (Pelagus, Hypermnestre, Lyncee).flac" WAVE
TRACK 16 AUDIO
TITLE "Act V Scene 10: Recitative and Chorus: Cruel! tiens, recois (Pelagus, Hypermn..."
PERFORMER "Michael Hoffstetter"
ISRC DEU920790944
FLAGS DCP
INDEX 01 00:00:00
FILE "17 - Act V Scene 11- Recitative and Chorus- La terre tremble (Lyncee, Chorus).flac" WAVE
TRACK 17 AUDIO
TITLE "Act V Scene 11: Recitative and Chorus: La terre tremble (Lyncee, Chorus)"
PERFORMER "Michael Hoffstetter"
ISRC DEU920790945
FLAGS DCP
INDEX 01 00:00:00



Показать сообщения:    

Текущее время: 08-Дек 21:12

Часовой пояс: UTC + 3


Вы не можете начинать темы
Вы не можете отвечать на сообщения
Вы не можете редактировать свои сообщения
Вы не можете удалять свои сообщения
Вы не можете голосовать в опросах
Вы не можете прикреплять файлы к сообщениям
Вы не можете скачивать файлы